<?xml version="1.0" standalone="no"?>
<!DOCTYPE svg PUBLIC "-//W3C//DTD SVG 1.1//EN" "http://www.w3.org/Graphics/SVG/1.1/DTD/svg11.dtd" >
<svg xmlns="http://www.w3.org/2000/svg">
<metadata>Generated by IcoMoon</metadata>
<defs>
<font id="icon" horiz-adv-x="512">
<font-face units-per-em="512" ascent="480" descent="-32" />
<missing-glyph horiz-adv-x="512" />
<glyph unicode="&#x20;" d="" horiz-adv-x="256" />
<glyph unicode="&#xe600;" d="M288 157.714v-96h64l-96-96-96 96h64v96zM224 285.714v96h-64l96 96 96-96h-64v-96zM192 189.714h-96v-64l-96 96 96 96v-64h96zM320 253.714h96v64l96-96-96-96v64h-96z" />
<glyph unicode="&#xe601;" d="M288 155.429v-96h64l-96-96-96 96h64v96zM224 283.429v96h-64l96 96 96-96h-64v-96z" />
<glyph unicode="&#xe602;" d="M297.293 421.362l61.543-49.817-77.568-75.008 51.2-51.2 75.059 77.619 50.995-62.899v161.305h-161.229zM178.893 194.136l-75.034-77.568-50.432 62.233v-161.28h161.28l-62.233 50.406 77.594 75.034-51.174 51.175z" />
<glyph unicode="&#xe603;" d="M104.96 114.469l-79.36-74.24 51.2-51.2 74.24 79.36 51.2-53.76v151.040h-151.040l53.76-51.2zM486.4 398.629l-51.2 51.2-74.24-79.36-51.2 53.76v-151.040h151.040l-53.76 51.2 79.36 74.24z" />
<glyph unicode="&#xe604;" d="M192 187.429h-96v-64l-96 96 96 96v-64h96zM320 251.429h96v64l96-96-96-96v64h-96z" />
<glyph unicode="&#xe605;" d="M54.856 27.429h384v-64h-384zM310.856 187.429v288h-128v-288h-64l128-160 128 160z" />
<glyph unicode="&#xe606;" d="M54.856 475.429h384v-64h-384zM182.857 251.429v-288h128v288h64l-128 160-128-160z" />
<glyph unicode="&#xe607;" d="M384 411.429c-6 0-11.808-0.944-17.632-1.808-22.304 39.488-63.552 65.808-110.368 65.808-47.808 0-89.088-26.688-111.056-65.568-5.632 0.752-11.232 1.568-16.944 1.568-70.592 0-128-57.44-128-128s57.408-128 128-128h96v-96h-64l96-96 96 96h-64v96h96c70.624 0 128 57.44 128 128s-57.376 128-128 128zM384 219.429h-256c-35.28 0-64 28.688-64 64 0 35.056 31.088 62.192 64.064 63.12 0.128-15.056 2.752-29.936 8-43.936l59.936 22.496c-2.656 7.072-4 14.64-4 22.32 0 35.312 28.72 64 64 64 20.72 0 39.408-10.256 51.248-26.192-30.928-23.376-51.248-60.128-51.248-101.808h64c0 35.312 28.752 64 64 64s64-28.688 64-64-28.752-64-64-64z" />
<glyph unicode="&#xe608;" d="M384 411.429c-6 0-11.808-0.992-17.632-1.744-22.304 39.376-63.552 65.744-110.368 65.744-47.808 0-89.088-26.624-111.056-65.632-5.632 0.752-11.232 1.632-16.944 1.632-70.592 0-128-57.376-128-128s57.408-128 128-128h256c70.624 0 128 57.376 128 128s-57.376 128-128 128zM384 219.429h-256c-35.28 0-64 28.752-64 64 0 35.12 31.088 62.128 64.064 63.12 0.128-15.12 2.752-29.872 8-43.872l59.936 22.368c-2.656 7.136-4 14.64-4 22.384 0 35.248 28.72 64 64 64 20.72 0 39.408-10.256 51.248-26.256-30.928-23.376-51.248-60.064-51.248-101.744h64c0 35.248 28.752 64 64 64s64-28.752 64-64-28.752-64-64-64zM256 155.429l-96-96h64v-96h64v96h64z" />
<glyph unicode="&#xe609;" d="M256-36.571q-52 0-99.5 20.25t-81.75 54.5-54.5 81.75-20.25 99.5 20.25 99.5 54.5 81.75 81.75 54.5 99.5 20.25 99.5-20.25 81.75-54.5 54.5-81.75 20.25-99.5-20.25-99.5-54.5-81.75-81.75-54.5-99.5-20.25zM256 411.429q-52 0-96.25-25.75t-70-70-25.75-96.25 25.75-96.25 70-70 96.25-25.75 96.25 25.75 70 70 25.75 96.25-25.75 96.25-70 70-96.25 25.75zM312 99.929q-8.5-8.5-20.5-8.5t-20.5 8.5l-88.5 88.5q-9 2.5-14 7.5-9.5 9.5-8 23.5-1.5 14.5 8 24 5 5 13.5 7l89 89q8.5 8.5 20.5 8.5t20.5-8.5 8.5-20.5-8.5-20.5l-78.5-79 78.5-78.5q8.5-8.5 8.5-20.5t-8.5-20.5z" />
<glyph unicode="&#xe60a;" d="M256-36.571q-52 0-99.5 20.25t-81.75 54.5-54.5 81.75-20.25 99.5 20.25 99.5 54.5 81.75 81.75 54.5 99.5 20.25 99.5-20.25 81.75-54.5 54.5-81.75 20.25-99.5-20.25-99.5-54.5-81.75-81.75-54.5-99.5-20.25zM256 411.429q-52 0-96.25-25.75t-70-70-25.75-96.25 25.75-96.25 70-70 96.25-25.75 96.25 25.75 70 70 25.75 96.25-25.75 96.25-70 70-96.25 25.75zM287 145.429q-2-8.5-7-13.5-9.5-9.5-24-8-14-1.5-23.5 8-5 5-7.5 14l-88.5 88.5q-8.5 8.5-8.5 20.5t8.5 20.5 20.5 8.5 20.5-8.5l78.5-79 79 79q8.5 8.5 20.5 8.5t20.5-8.5 8.5-20.5-8.5-20.5z" />
<glyph unicode="&#xe60b;" d="M256-36.571q-52 0-99.5 20.25t-81.75 54.5-54.5 81.75-20.25 99.5 20.25 99.5 54.5 81.75 81.75 54.5 99.5 20.25 99.5-20.25 81.75-54.5 54.5-81.75 20.25-99.5-20.25-99.5-54.5-81.75-81.75-54.5-99.5-20.25zM256 411.429q-52 0-96.25-25.75t-70-70-25.75-96.25 25.75-96.25 70-70 96.25-25.75 96.25 25.75 70 70 25.75 96.25-25.75 96.25-70 70-96.25 25.75zM335 163.429l-79 78.5-78.5-78.5q-8.5-8.5-20.5-8.5t-20.5 8.5-8.5 20.5 8.5 20.5l88.5 88.5q2.5 9 7.5 14 9.5 9.5 23.5 8 14.5 1.5 24-8 5-5 7-13.5l89-89q8.5-8.5 8.5-20.5t-8.5-20.5-20.5-8.5-20.5 8.5z" />
<glyph unicode="&#xe60c;" d="M256-36.571q-52 0-99.5 20.25t-81.75 54.5-54.5 81.75-20.25 99.5 20.25 99.5 54.5 81.75 81.75 54.5 99.5 20.25 99.5-20.25 81.75-54.5 54.5-81.75 20.25-99.5-20.25-99.5-54.5-81.75-81.75-54.5-99.5-20.25zM256 411.429q-52 0-96.25-25.75t-70-70-25.75-96.25 25.75-96.25 70-70 96.25-25.75 96.25 25.75 70 70 25.75 96.25-25.75 96.25-70 70-96.25 25.75zM343.5 195.929q-5-5-14-7.5l-88.5-88.5q-8.5-8.5-20.5-8.5t-20.5 8.5-8.5 20.5 8.5 20.5l79 78.5-79 79q-8.5 8.5-8.5 20.5t8.5 20.5 20.5 8.5 20.5-8.5l89-89q8.5-2 13.5-7 9.5-9.5 8-24 1.5-14-8-23.5z" />
<glyph unicode="&#xe60d;" d="M502.25 197.679q-9.75-9.75-23.5-9.75t-23.25 9.5l-7.5 7.5v-209.5q0-13-9.25-22.5t-22.75-9.5h-320q-13.5 0-22.75 9.5t-9.25 22.5v209.5l-7.5-7.5q-9.5-9.5-23.25-9.5t-23.5 9.75-9.75 23.5 9.5 23.25l222 222q8 8 19.25 9.25t20.75-4.75q4 0 9-4.5l222-222q9.5-9.5 9.5-23.25t-9.75-23.5zM384 268.929l-128 128-128-128v-241.5h256v241.5z" />
<glyph unicode="&#xe60e;" d="M256-36.571c-141.382 0-256 114.618-256 256s114.618 256 256 256 256-114.618 256-256-114.618-256-256-256zM256 428.883c-115.689 0-209.454-93.766-209.454-209.454s93.766-209.454 209.454-209.454 209.454 93.766 209.454 209.454-93.766 209.454-209.454 209.454zM139.637 196.156h69.818l46.546 186.182 46.546-186.182h69.818l-116.363-116.363-116.363 116.363z" />
<glyph unicode="&#xe60f;" d="M256-36.571c0 0-162.909 186.182-162.909 349.091s162.909 162.909 162.909 162.909 162.909 0 162.909-162.909-162.909-349.091-162.909-349.091zM370.176 334.163c-5.353 28.44-21.202 52.876-43.171 69.935-1.49 1.187-2.839 2.514-4.399 3.63-3.445 2.444-7.261 4.375-11.008 6.423-3.142 1.745-6.098 3.654-9.425 5.12-3.258 1.42-6.772 2.257-10.193 3.375-3.979 1.303-7.773 2.863-11.986 3.724-7.75 1.606-15.733 2.514-23.947 2.514 0 0-0.024 0-0.046 0-0.047 0-0.070 0-0.117 0-8.099 0-15.988-0.861-23.622-2.421-15.244-3.072-28.881-9.123-40.844-17.199-0.186-0.116-0.373-0.186-0.536-0.302-4.957-3.375-9.402-7.261-13.731-11.334-1.304-1.21-2.746-2.234-3.98-3.491-2.909-3.002-5.352-6.33-7.936-9.588-2.211-2.816-4.608-5.493-6.586-8.518-1.327-2.118-2.327-4.399-3.56-6.586-2.467-4.399-4.981-8.774-6.888-13.498-0.721-1.769-1.071-3.654-1.699-5.469-1.768-5.12-3.56-10.24-4.608-15.686-1.466-7.308-2.257-14.778-2.257-22.272 0-116.363 116.364-279.272 116.364-279.272s116.363 162.909 116.363 279.272c0 7.238-0.745 14.499-2.188 21.643zM186.182 312.52c0 38.563 31.256 69.818 69.818 69.818s69.818-31.255 69.818-69.818-31.255-69.818-69.818-69.818-69.818 31.255-69.818 69.818z" />
<glyph unicode="&#xe610;" d="M465.454-36.571h-418.909c-25.693 0-46.545 20.853-46.545 46.546v418.909c0 25.693 20.852 46.546 46.545 46.546h418.909c25.693 0 46.546-20.853 46.546-46.546v-418.909c0-25.693-20.853-46.546-46.546-46.546zM465.454 428.883h-418.909v-418.909h418.909v418.909zM232.727 126.338l69.818 93.091 116.363-162.909h-325.818l93.091 116.363 46.546-46.546zM186.182 265.974c-25.693 0-46.546 20.852-46.546 46.546s20.852 46.546 46.546 46.546 46.546-20.853 46.546-46.546-20.852-46.546-46.546-46.546z" />
<glyph unicode="&#xe611;" d="M512 335.792l-162.909-116.363v69.818c-223.279 0-251.787-159.255-255.464-199.982 6.028 269.312 255.464 269.8 255.464 269.8v93.091l162.909-116.363zM93.626 89.264c-0.046-3.281-0.535-6.098-0.535-9.472 0 0 0.023 3.491 0.535 9.472zM46.545 359.065v-325.818h372.363v166.237l46.546 33.257v-199.494c0-25.693-20.853-46.546-46.546-46.546h-372.363c-25.693 0-46.545 20.853-46.545 46.546v325.818c0 25.693 20.852 46.546 46.545 46.546h302.546c-0.024 0-91.206-0.303-173.452-46.546h-129.094z" />
<glyph unicode="&#xe612;" d="M465.454-36.571h-418.909c-25.693 0-46.545 20.853-46.545 46.546v418.909c0 25.693 20.852 46.546 46.545 46.546h349.091l-46.546-46.546h-302.546v-418.909h418.909v302.546l46.546 46.546v-349.091c0-25.693-20.853-46.546-46.546-46.546zM436.363 434.701l40.728 40.728c0 0 34.909 0.721 34.909-34.188l-41.053-41.146-34.584 34.606zM209.454 172.883v34.909l17.454 17.454 34.886-34.886-17.431-17.478h-34.909zM447.721 376.799l-174.313-174.778-34.863 34.863 174.546 174.546 34.63-34.63z" />
<glyph unicode="&#xe613;" d="M465.454 33.247h-418.909c-25.693 0-46.545 20.853-46.545 46.546v279.272c0 25.693 20.852 46.546 46.545 46.546h418.909c25.693 0 46.546-20.853 46.546-46.546v-279.272c0-25.693-20.853-46.546-46.546-46.546zM442.182 79.792l-133.399 116.736-52.783-46.918-52.782 46.918-133.399-116.736h372.364zM46.545 103.065l130.909 116.363-130.909 116.363v-232.728zM69.818 359.065l186.182-162.909 186.182 162.909h-372.363zM465.454 335.792l-130.909-116.363 130.909-116.363v232.727z" />
<glyph unicode="&#xe614;" d="M437.015 38.413c-99.98-99.98-262.074-99.98-362.054 0-99.957 99.98-99.957 262.074 0 362.054 99.98 99.957 262.074 99.957 362.054 0 99.98-100.003 99.98-262.074 0-362.054zM386.676 55.845l-33.582 33.582c-57.623-43.055-136.565-43.055-194.165 0l-33.024-33c76.218-60.904 184.6-61.579 260.771-0.582zM338.269 301.721c-45.428 45.452-119.11 45.452-164.561 0s-45.452-119.133 0-164.561c45.452-45.452 119.133-45.452 164.561 0 45.452 45.428 45.452 119.11 0 164.561zM92.392 88.752l33.606 33.582c-43.078 57.623-43.078 136.565 0 194.164l-33.001 33.024c-60.904-76.218-61.58-184.599-0.605-260.771zM125.906 382.431l33.024-33.024c57.6 43.078 136.565 43.078 194.165 0l33.582 33.606c-76.171 60.998-184.553 60.323-260.771-0.582zM419.584 350.105l-33.582-33.606c43.055-57.6 43.055-136.565 0-194.164l33-33c60.904 76.218 61.579 184.599 0.582 260.771z" />
<glyph unicode="&#xe615;" d="M480-4.571h-192q-13 0-22.5 9.25t-9.5 22.5 9.5 22.75 22.5 9.5h192q13.5 0 22.75-9.5t9.25-22.75-9.25-22.5-22.75-9.25zM416 123.429h-128q-13 0-22.5 9.25t-9.5 22.5 9.5 22.5 22.5 9.25h128q13.5 0 22.75-9.25t9.25-22.5-9.25-22.5-22.75-9.25zM352 250.929h-64q-13 0-22.5 9.5t-9.5 22.75 9.5 22.5 22.5 9.25h64q13.5 0 22.75-9.25t9.25-22.5-9.25-22.75-22.75-9.5zM288.25 378.929q-13.25 0-22.75 9.5t-9.5 22.75 9.5 22.5 22.75 9.25 22.5-9.5 9.25-22.5-9.25-22.5-22.5-9.5zM109-32.571q-5.5-4-13-4t-13 4l-77.5 103.5q-5.5 4-5.5 10t5.5 10h59v352q0 13 9.25 22.5t22.5 9.5 22.75-9.5 9.5-22.5v-352h58.5q5-4 5-10t-5-10z" />
<glyph unicode="&#xe616;" d="M480 378.929h-192q-13 0-22.5 9.5t-9.5 22.75 9.5 22.5 22.5 9.25h192q13.5 0 22.75-9.5t9.25-22.5-9.25-22.5-22.75-9.5zM109-32.571q-5.5-4-13-4t-13 4l-77.5 103.5q-5.5 4-5.5 10t5.5 10h59v352q0 13 9.25 22.5t22.5 9.5 22.75-9.5 9.5-22.5v-352h58.5q5-4 5-10t-5-10zM288 314.929h128q13.5 0 22.75-9.25t9.25-22.5-9.25-22.75-22.75-9.5h-128q-13 0-22.5 9.5t-9.5 22.75 9.5 22.5 22.5 9.25zM288 186.929h64q13.5 0 22.75-9.25t9.25-22.5-9.25-22.5-22.75-9.25h-64q-13 0-22.5 9.25t-9.5 22.5 9.5 22.5 22.5 9.25zM288.25 59.429q13.25 0 22.5-9.5t9.25-22.75-9.25-22.5-22.5-9.25-22.75 9.25-9.5 22.5 9.5 22.75 22.75 9.5z" />
<glyph unicode="&#xe617;" d="M424 43.429h-48c-4.416 0-8 3.584-8 8s3.584 8 8 8h40v40c0 4.416 3.584 8 8 8 4.4 0 8-3.584 8-8v-48c0-4.416-3.6-8-8-8zM424 139.429c-4.416 0-8 3.584-8 8v48c0 4.416 3.584 8 8 8 4.4 0 8-3.584 8-8v-48c0-4.416-3.6-8-8-8zM424 235.429c-4.416 0-8 3.584-8 8v48c0 4.416 3.584 8 8 8 4.4 0 8-3.584 8-8v-48c0-4.416-3.6-8-8-8zM424 331.429c-4.416 0-8 3.584-8 8v40h-40c-4.416 0-8 3.584-8 8s3.584 8 8 8h48c4.4 0 8-3.584 8-8v-48c0-4.416-3.6-8-8-8zM234.656 138.581c-2.944-2.96-7.728-2.96-10.688 0l-16.032 16.032c-0.032 0.048-0.016 0.112-0.048 0.144l-51.008 51.392c-2.96 2.944-2.96 7.728 0 10.688l16.032 16.048c2.96 2.96 7.744 2.96 10.704 0l45.76-46.096 96.224 96.208c2.944 2.96 7.728 2.96 10.688 0l16.032-16.048c2.976-2.96 2.976-7.744 0-10.704l-117.664-117.664zM328 379.429h-48c-4.416 0-8 3.584-8 8s3.584 8 8 8h48c4.4 0 8-3.584 8-8s-3.6-8-8-8zM232 379.429h-48c-4.416 0-8 3.584-8 8s3.584 8 8 8h48c4.4 0 8-3.584 8-8s-3.6-8-8-8zM136 43.429h-48c-4.416 0-8 3.584-8 8v48c0 4.416 3.584 8 8 8s8-3.584 8-8v-40h40c4.416 0 8-3.584 8-8s-3.584-8-8-8zM136 379.429h-40v-40c0-4.416-3.584-8-8-8s-8 3.584-8 8v48c0 4.416 3.584 8 8 8h48c4.416 0 8-3.584 8-8s-3.584-8-8-8zM88 299.429c4.416 0 8-3.584 8-8v-48c0-4.416-3.584-8-8-8s-8 3.584-8 8v48c0 4.416 3.584 8 8 8zM88 203.429c4.416 0 8-3.584 8-8v-48c0-4.416-3.584-8-8-8s-8 3.584-8 8v48c0 4.416 3.584 8 8 8zM184 59.429h48c4.4 0 8-3.584 8-8s-3.6-8-8-8h-48c-4.416 0-8 3.584-8 8s3.584 8 8 8zM280 59.429h48c4.4 0 8-3.584 8-8s-3.6-8-8-8h-48c-4.416 0-8 3.584-8 8s3.584 8 8 8z" />
<glyph unicode="&#xe618;" d="M424 43.429h-48c-4.416 0-8 3.584-8 8s3.584 8 8 8h40v40c0 4.416 3.584 8 8 8 4.4 0 8-3.584 8-8v-48c0-4.416-3.6-8-8-8zM424 139.429c-4.416 0-8 3.584-8 8v48c0 4.416 3.584 8 8 8 4.4 0 8-3.584 8-8v-48c0-4.416-3.6-8-8-8zM424 235.429c-4.416 0-8 3.584-8 8v48c0 4.416 3.584 8 8 8 4.4 0 8-3.584 8-8v-48c0-4.416-3.6-8-8-8zM424 331.429c-4.416 0-8 3.584-8 8v40h-40c-4.416 0-8 3.584-8 8s3.584 8 8 8h48c4.4 0 8-3.584 8-8v-48c0-4.416-3.6-8-8-8zM328 43.429h-48c-4.416 0-8 3.584-8 8s3.584 8 8 8h48c4.4 0 8-3.584 8-8s-3.6-8-8-8zM328 379.429h-48c-4.416 0-8 3.584-8 8s3.584 8 8 8h48c4.4 0 8-3.584 8-8s-3.6-8-8-8zM232 379.429h-48c-4.416 0-8 3.584-8 8s3.584 8 8 8h48c4.4 0 8-3.584 8-8s-3.6-8-8-8zM136 43.429h-48c-4.416 0-8 3.584-8 8v48c0 4.416 3.584 8 8 8s8-3.584 8-8v-40h40c4.416 0 8-3.584 8-8s-3.584-8-8-8zM136 379.429h-40v-40c0-4.416-3.584-8-8-8s-8 3.584-8 8v48c0 4.416 3.584 8 8 8h48c4.416 0 8-3.584 8-8s-3.584-8-8-8zM88 299.429c4.416 0 8-3.584 8-8v-48c0-4.416-3.584-8-8-8s-8 3.584-8 8v48c0 4.416 3.584 8 8 8zM88 203.429c4.416 0 8-3.584 8-8v-48c0-4.416-3.584-8-8-8s-8 3.584-8 8v48c0 4.416 3.584 8 8 8zM331.776 159.861l-16.224-16.224c-2.976-2.992-7.808-2.992-10.8 0l-45.92 45.92-45.92-45.92c-2.992-2.992-7.808-2.992-10.8 0l-16.208 16.224c-2.992 2.992-2.992 7.808 0 10.8l45.936 45.92-45.936 45.92c-2.992 2.976-2.992 7.808 0 10.8l16.208 16.208c2.992 2.992 7.808 2.992 10.8 0l45.92-45.92 45.92 45.92c2.992 2.992 7.824 2.992 10.8 0l16.224-16.208c2.976-2.992 2.976-7.824 0-10.8l-45.936-45.92 45.936-45.92c2.976-2.976 2.976-7.808 0-10.8zM184 59.429h48c4.4 0 8-3.584 8-8s-3.6-8-8-8h-48c-4.416 0-8 3.584-8 8s3.584 8 8 8z" />
<glyph unicode="&#xe619;" d="M424 43.429h-48c-4.416 0-8 3.584-8 8s3.584 8 8 8h40v40c0 4.416 3.584 8 8 8 4.4 0 8-3.584 8-8v-48c0-4.416-3.6-8-8-8zM424 139.429c-4.416 0-8 3.584-8 8v48c0 4.416 3.584 8 8 8 4.4 0 8-3.584 8-8v-48c0-4.416-3.6-8-8-8zM424 235.429c-4.416 0-8 3.584-8 8v48c0 4.416 3.584 8 8 8 4.4 0 8-3.584 8-8v-48c0-4.416-3.6-8-8-8zM424 331.429c-4.416 0-8 3.584-8 8v40h-40c-4.416 0-8 3.584-8 8s3.584 8 8 8h48c4.4 0 8-3.584 8-8v-48c0-4.416-3.6-8-8-8zM328 43.429h-48c-4.416 0-8 3.584-8 8s3.584 8 8 8h48c4.4 0 8-3.584 8-8s-3.6-8-8-8zM328 379.429h-48c-4.416 0-8 3.584-8 8s3.584 8 8 8h48c4.4 0 8-3.584 8-8s-3.6-8-8-8zM319.008 235.429c8.832 0 16-7.152 16-16 0-8.832-7.168-16-16-16h-48v-48c0-8.832-7.168-16-16-16-8.848 0-16 7.168-16 16v48h-48c-8.832 0-16 7.168-16 16 0 8.848 7.152 16 16 16h48v48c0 8.848 7.152 16 16 16 8.832 0 16-7.152 16-16v-48h48zM232 379.429h-48c-4.416 0-8 3.584-8 8s3.584 8 8 8h48c4.4 0 8-3.584 8-8s-3.6-8-8-8zM136 43.429h-48c-4.416 0-8 3.584-8 8v48c0 4.416 3.584 8 8 8s8-3.584 8-8v-40h40c4.416 0 8-3.584 8-8s-3.584-8-8-8zM136 379.429h-40v-40c0-4.416-3.584-8-8-8s-8 3.584-8 8v48c0 4.416 3.584 8 8 8h48c4.416 0 8-3.584 8-8s-3.584-8-8-8zM88 299.429c4.416 0 8-3.584 8-8v-48c0-4.416-3.584-8-8-8s-8 3.584-8 8v48c0 4.416 3.584 8 8 8zM88 203.429c4.416 0 8-3.584 8-8v-48c0-4.416-3.584-8-8-8s-8 3.584-8 8v48c0 4.416 3.584 8 8 8zM184 59.429h48c4.4 0 8-3.584 8-8s-3.6-8-8-8h-48c-4.416 0-8 3.584-8 8s3.584 8 8 8z" />
<glyph unicode="&#xe61a;" d="M136 395.429h-48c-4.416 0-8-3.584-8-8v-48c0-4.416 3.584-8 8-8s8 3.584 8 8v40h40c4.416 0 8 3.584 8 8s-3.584 8-8 8zM184 379.429h48c4.4 0 8 3.584 8 8s-3.6 8-8 8h-48c-4.416 0-8-3.584-8-8s3.584-8 8-8zM328 395.429h-48c-4.416 0-8-3.584-8-8s3.584-8 8-8h48c4.4 0 8 3.584 8 8s-3.6 8-8 8zM424 395.429h-48c-4.416 0-8-3.584-8-8s3.584-8 8-8h40v-40c0-4.416 3.584-8 8-8 4.4 0 8 3.584 8 8v48c0 4.416-3.6 8-8 8zM424 299.429c-4.416 0-8-3.584-8-8v-48c0-4.416 3.584-8 8-8 4.4 0 8 3.584 8 8v48c0 4.416-3.6 8-8 8zM424 203.429c-4.416 0-8-3.584-8-8v-48c0-4.416 3.584-8 8-8 4.4 0 8 3.584 8 8v48c0 4.416-3.6 8-8 8zM424 107.429c-4.416 0-8-3.584-8-8v-40h-40c-4.416 0-8-3.584-8-8s3.584-8 8-8h48c4.4 0 8 3.584 8 8v48c0 4.416-3.6 8-8 8zM328 59.429h-48c-4.416 0-8-3.584-8-8s3.584-8 8-8h48c4.4 0 8 3.584 8 8s-3.6 8-8 8zM232 59.429h-48c-4.416 0-8-3.584-8-8s3.584-8 8-8h48c4.4 0 8 3.584 8 8s-3.6 8-8 8zM136 59.429h-40v40c0 4.416-3.584 8-8 8s-8-3.584-8-8v-48c0-4.416 3.584-8 8-8h48c4.416 0 8 3.584 8 8s-3.584 8-8 8zM88 139.429c4.416 0 8 3.584 8 8v48c0 4.416-3.584 8-8 8s-8-3.584-8-8v-48c0-4.416 3.584-8 8-8zM88 235.429c4.416 0 8 3.584 8 8v48c0 4.416-3.584 8-8 8s-8-3.584-8-8v-48c0-4.416 3.584-8 8-8zM191.008 203.429h128c8.848 0 16 7.168 16 16 0 8.848-7.152 16-16 16h-128c-8.848 0-16-7.152-16-16 0-8.832 7.152-16 16-16z" />
<glyph unicode="&#xe61b;" d="M0 432.762v-298.666h208l-37.334-64h170.666l-37.334 64h208v298.666h-512zM469.334 176.762h-426.666v213.333h426.666v-213.333zM362.666 48.762h-213.333c-11.733 0-21.334-9.6-21.334-21.334s9.6-21.334 21.334-21.334h213.333c11.733 0 21.334 9.6 21.334 21.334s-9.6 21.334-21.334 21.334z" />
<glyph unicode="&#xe61c;" d="M341.334 411.429h-170.667c-23.466 0-42.667-19.2-42.667-42.667v-298.666c0-23.466 19.2-42.666 42.666-42.666h170.666c23.466 0 42.666 19.2 42.666 42.666v298.666c0 23.466-19.2 42.666-42.666 42.666zM277.334 48.762h-42.666v42.666h42.666v-42.666zM341.334 112.762h-170.667v256h170.667v-256z" />
<glyph unicode="&#xe61d;" d="M448 283.429h-149.333v-42.666h149.333v-170.666h-149.333c0-23.466-21.334-42.666-21.334-42.666h170.666c23.466 0 42.666 19.2 42.666 42.666v170.666c0 23.466-19.2 42.667-42.666 42.667zM213.333 411.429h-170.667c-23.466 0-42.666-19.2-42.666-42.667v-298.666c0-23.466 19.2-42.666 42.666-42.666h170.667c23.466 0 42.667 19.2 42.667 42.666v298.666c0 23.466-19.2 42.666-42.666 42.666zM149.333 48.762h-42.666v42.666h42.666v-42.666zM213.333 112.762h-170.667v256h170.667v-256z" />
<glyph unicode="&#xe61e;" d="M42.666 368.762h170.667v-42.666h42.666v42.666c0 23.466-19.2 42.667-42.666 42.667h-170.667c-23.466 0-42.666-19.2-42.666-42.667v-298.666c0-23.466 16.235-42.666 39.68-42.666h24.32v85.334h-21.334v256zM448 283.429h-298.666c-23.466 0-42.666-19.2-42.666-42.666v-170.666c0-23.466 19.2-42.666 42.666-42.666h298.666c23.466 0 42.666 19.2 42.666 42.666v170.666c0 23.466-19.2 42.667-42.666 42.667zM170.667 134.095h-42.667v42.666h42.666v-42.666zM448 70.095h-256v170.666h256v-170.666z" />
<glyph unicode="&#xe61f;" d="M405.334 454.095h-298.666c-23.466 0-42.666-19.2-42.666-42.666v-384c0-23.466 19.2-42.666 42.666-42.666h298.666c23.466 0 42.666 19.2 42.666 42.666v384c0 23.466-19.2 42.666-42.666 42.666zM277.334 6.095h-42.666v42.666h42.666v-42.666zM405.334 70.095h-298.666v341.334h298.666v-341.334z" />
<glyph unicode="&#xe620;" d="M490.666 70.095v298.666c0 23.466-19.2 42.666-42.666 42.666h-384c-23.466 0-42.666-19.2-42.666-42.666v-298.666c0-23.466 19.2-42.666 42.666-42.666h384c23.466 0 42.666 19.2 42.666 42.666zM42.666 198.095v42.666h42.666v-42.666h-42.666zM106.666 70.095v298.666h341.334v-298.666h-341.334z" />
<glyph unicode="&#xe621;" d="M64 347.429h384v-213.333h42.666v256h-469.334v-256h42.666v213.333zM341.334 112.762c-4.096-8.576-24.426-15.466-42.666-18.901v-2.432h-85.334v2.432c-18.24 3.435-38.571 10.325-42.666 18.901h-170.667v-21.334c0-23.466 64-42.666 64-42.666h384c0 0 64 19.2 64 42.666v21.334h-170.667zM426.666 70.095h-21.334v21.334h21.334v-21.334z" />
<glyph unicode="&#xe622;" d="M258.368 464.762l-237.035-116.309v-235.392l234.667-138.965 234.667 138.966v235.392l-232.298 116.31zM234.667 36.303l-170.667 101.077v142.4l170.667-84.33v-159.147zM73.898 323.834l184.832 93.142 184.832-93.142-184.832-91.328-184.832 91.328zM448 137.381l-192-113.707v164.736l192 91.37v-142.4z" />
<glyph unicode="&#xe623;" d="M83.541 397.626c-48.832-35.115-80.79-92.267-80.79-156.864 0-23.616 4.458-46.144 12.245-67.094l181.035 67.094-112.49 156.864zM33.45 246.138c-0.768 40.022 14.443 78.549 42.048 107.243l89.536-99.392-126.954-42.346c-2.858 11.221-4.416 22.784-4.63 34.496zM283.99 443.429c-53.93 0-106.026-19.435-146.731-54.742l0.534-0.597-8.512-7.445 135.978-155.968-197.845-62.848 2.901-9.11-0.213-0.064c0.597-1.984 1.386-3.861 2.070-5.781l1.707-5.397 0.192 0.064c32.448-87.829 115.285-146.134 209.92-146.134 123.52 0 224 100.501 224 224s-100.48 224.022-224 224.022zM450.219 291.663l-134.998-49.429 88.128 113.387c19.947-17.536 36.118-39.275 46.87-63.958zM173.162 362.767c31.68 24.47 70.571 37.995 110.826 37.995 38.058 0 73.365-11.84 102.57-31.957l-103.040-132.587-110.358 126.549zM115.157 154.597l155.2 49.322-28.65-160.32c-57.536 13.654-104.917 54.464-126.549 110.998zM283.99 38.095c-7.232 0-14.229 0.875-21.269 1.707l30.678 171.712 164.182 60.118c4.971-16.555 7.723-34.070 7.723-52.202 0.022-100.010-81.344-181.333-181.312-181.333z" />
<glyph unicode="&#xe624;" d="M490.624 6.053h-42.624v21.376h-21.376v-21.376h-42.56v21.376h-21.376v-21.376h-42.624v21.376h-21.376v-21.376h-42.624v21.376h-21.376v-21.376h-42.624v21.376h-21.376v-21.376h-93.888l112.427 67.563 55.638 162.602 82.645-145.258 160.149 266.837-36.565 21.974-122.603-204.288-93.355 164.075-81.258-237.397-111.254-66.858v440.128h-42.624v-512h512v64h-21.376zM490.624 475.429h21.376v-21.376h-21.376zM426.624 475.429h21.376v-21.376h-21.376zM362.688 475.429h21.376v-21.376h-21.376zM298.688 475.429h21.376v-21.376h-21.376zM234.688 475.429h21.376v-21.376h-21.376zM170.688 475.429h21.376v-21.376h-21.376zM106.688 475.429h21.376v-21.376h-21.376zM42.688 475.429h21.376v-21.376h-21.376zM490.624 411.429h21.376v-21.376h-21.376zM426.624 411.429h21.376v-21.376h-21.376zM362.688 411.429h21.376v-21.376h-21.376zM298.688 411.429h21.376v-21.376h-21.376zM234.688 411.429h21.376v-21.376h-21.376zM170.688 411.429h21.376v-21.376h-21.376zM106.688 411.429h21.376v-21.376h-21.376zM42.688 411.429h21.376v-21.376h-21.376zM490.624 347.493h21.376v-21.376h-21.376zM362.688 347.493h21.376v-21.376h-21.376zM298.688 347.493h21.376v-21.376h-21.376zM170.688 347.493h21.376v-21.376h-21.376zM106.688 347.493h21.376v-21.376h-21.376zM42.688 347.493h21.376v-21.376h-21.376zM490.624 283.493h21.376v-21.376h-21.376zM298.688 283.493h21.376v-21.376h-21.376zM170.688 283.493h21.376v-21.376h-21.376zM106.688 283.493h21.376v-21.376h-21.376zM42.688 283.493h21.376v-21.376h-21.376zM490.624 219.45h21.376v-21.376h-21.376zM426.624 219.45h21.376v-21.376h-21.376zM106.688 219.45h21.376v-21.376h-21.376zM42.688 219.45h21.376v-21.376h-21.376zM490.624 155.45h21.376v-21.376h-21.376zM426.624 155.45h21.376v-21.376h-21.376zM234.688 155.45h21.376v-21.376h-21.376zM106.688 155.45h21.376v-21.376h-21.376zM42.688 155.45h21.376v-21.376h-21.376zM490.624 91.514h21.376v-21.376h-21.376zM426.624 91.514h21.376v-21.376h-21.376zM362.688 91.514h21.376v-21.376h-21.376zM234.688 91.514h21.376v-21.376h-21.376zM42.688 91.514h21.376v-21.376h-21.376z" />
<glyph unicode="&#xe625;" d="M256 475.429c-141.376 0-256-114.624-256-256s114.624-256 256-256 256 114.624 256 256-114.624 256-256 256zM256 6.095c-117.632 0-213.333 95.702-213.333 213.334s95.701 213.333 213.333 213.333 213.333-95.701 213.333-213.333-95.702-213.333-213.333-213.333zM151.637 354.49c0 0-0.064-0.064-0.085-0.064 0-0.022 0-0.022 0-0.022-0.042-0.022-0.064-0.064-0.085-0.064-0.022-0.022-0.022-0.022-0.042-0.042-0.042-0.022-0.107-0.086-0.149-0.107-0.022-0.022-0.022-0.022-0.022-0.022-0.042-0.043-0.064-0.043-0.085-0.064l-0.042-0.022c-0.022-0.022-0.042-0.022-0.064-0.064-0.022 0-0.064-0.022-0.085-0.043 0 0-0.022-0.021-0.042-0.042-0.042-0.022-0.064-0.043-0.107-0.086 0 0-0.042-0.022-0.042-0.042-0.042 0-0.064-0.043-0.085-0.043 0 0-0.022-0.043-0.042-0.043l-0.064-0.064c-0.022-0.022-0.022-0.022-0.022-0.022-0.064-0.042-0.107-0.085-0.149-0.106v-0.022c-0.042-0.022-0.085-0.042-0.107-0.085 0 0-0.022 0-0.042 0-0.022-0.043-0.064-0.064-0.085-0.086 0 0-0.022-0.022-0.042-0.043-0.085-0.042-0.149-0.106-0.234-0.149-0.022-0.022-0.022-0.022-0.022-0.022-0.042-0.022-0.085-0.064-0.107-0.106v0c-0.149-0.106-0.278-0.214-0.405-0.298v-0.022c-2.282-1.856-4.544-3.734-6.742-5.696-0.128-0.106-0.256-0.214-0.363-0.32h-0.022c-0.042-0.042-0.064-0.085-0.107-0.128h-0.022c-0.085-0.064-0.149-0.128-0.234-0.214h-0.022c-0.022-0.042-0.064-0.085-0.085-0.106 0-0.022-0.022-0.022-0.022-0.022-0.042-0.043-0.064-0.064-0.107-0.086v-0.022c-0.042 0-0.085-0.042-0.128-0.085 0 0-0.022 0-0.022-0.022l-0.085-0.086c-0.022-0.022-0.022-0.022-0.022-0.022-0.042-0.042-0.085-0.064-0.085-0.064-0.042-0.043-0.042-0.043-0.042-0.043-0.042-0.042-0.085-0.064-0.128-0.106 0 0 0 0-0.022-0.022l-0.085-0.086c-0.022-0.022-0.022-0.022-0.022-0.022-0.042-0.042-0.064-0.064-0.107-0.085 0-0.022-0.022-0.022-0.022-0.022l-0.085-0.107c0 0-0.022-0.022-0.042-0.042s-0.042-0.043-0.085-0.064c0 0-0.042-0.042-0.042-0.064 0 0-0.042-0.022-0.064-0.043s-0.042-0.022-0.064-0.022c0 0-0.022-0.042-0.042-0.064-0.042-0.022-0.064-0.064-0.085-0.064-0.022-0.042-0.042-0.042-0.085-0.085 0 0-0.022-0.043-0.042-0.043l-0.042-0.042c-0.042-0.022-0.064-0.043-0.085-0.064 0-0.022-0.022-0.022-0.022-0.022l-0.234-0.256h-0.022c-0.022-0.043-0.042-0.064-0.085-0.086 0 0 0 0-0.022-0.022s-0.042-0.022-0.042-0.022l14.549-15.616c4.523 4.202 9.387 8.214 14.4 11.84l-12.501 17.28c-1.514-1.067-3.008-2.198-4.501-3.35zM114.24 266.554l-20.246 6.72c-1.28-3.861-2.41-7.744-3.413-11.712-0.043-0.192-0.085-0.363-0.128-0.512h-0.022c0-0.042-0.022-0.085-0.022-0.128l-0.128-0.49c-0.022-0.042-0.022-0.085-0.043-0.128 0 0 0 0 0-0.022-0.043-0.171-0.085-0.32-0.128-0.469v-0.043c0-0.042-0.022-0.085-0.022-0.085v-0.043c-0.043-0.128-0.064-0.256-0.106-0.384 0-0.043-0.022-0.086-0.022-0.128-0.022-0.043-0.022-0.086-0.043-0.128v-0.022c-0.022-0.107-0.064-0.235-0.085-0.363 0 0 0 0 0-0.022-0.022-0.043-0.022-0.064-0.022-0.107 0-0.022 0-0.042-0.022-0.042 0-0.043-0.022-0.086-0.022-0.107v-0.022c-0.022-0.128-0.064-0.234-0.085-0.363 0-0.022 0-0.022 0-0.022-0.022-0.042-0.022-0.085-0.043-0.128-0.043-0.171-0.064-0.341-0.106-0.49v-0.022c-0.022-0.042-0.022-0.064-0.043-0.106v-0.043c-0.043-0.171-0.064-0.341-0.106-0.469v-0.022c0-0.022 0-0.064-0.022-0.107-0.022-0.128-0.043-0.256-0.085-0.384 0-0.043-0.022-0.086-0.022-0.128 0 0 0-0.022 0-0.043-0.022-0.022-0.022-0.064-0.022-0.106l-0.022-0.022c-0.022-0.171-0.064-0.341-0.106-0.49s-0.064-0.341-0.106-0.512c-0.022-0.043-0.022-0.086-0.022-0.128-0.15-0.683-0.299-1.387-0.448-2.070l20.928-4.139c1.237 6.080 2.838 12.16 4.778 18.026zM256 368.762c1.707 0 3.392-0.042 5.077-0.085l0.704 21.334c-1.43 0.043-2.858 0.064-4.33 0.085h-0.022c-0.043 0-0.106 0-0.106 0h-0.426c0 0 0 0-0.022 0h-0.149c-0.022 0-0.022 0-0.022 0h-0.363c0 0-0.022 0-0.043 0h-0.086c0 0-0.022 0-0.043 0h-0.341c0 0-0.022 0-0.042 0h-0.171c0 0-0.064 0-0.107 0 0 0-0.022 0-0.042 0h-0.107c0 0-0.022 0-0.042 0h-0.149c-0.022 0-0.022 0-0.022 0h-1.152c0 0-0.022 0-0.042 0h-0.149c-0.064 0-0.107 0-0.171-0.022h-0.171c0 0-0.022 0-0.042 0h-0.107c-0.022 0-0.042 0-0.042 0h-0.128c-0.022 0-0.022 0-0.022 0-0.128 0-0.234-0.022-0.341-0.022-0.022 0-0.022 0-0.022 0h-0.149c-0.022 0-0.022 0-0.022 0h-0.661c0 0 0 0-0.022 0h-0.149c-0.171 0-0.341-0.022-0.49-0.022-0.064 0-0.128 0-0.171-0.022h-0.853c-4.736-0.171-9.429-0.512-14.080-1.046-0.149-0.043-0.32-0.043-0.47-0.085h-0.171c-0.042 0-0.085-0.022-0.085-0.022-0.042 0-0.064 0-0.085-0.022h-0.107c-0.022 0-0.022 0-0.022 0-0.064 0-0.128-0.022-0.171-0.022-0.022 0-0.042-0.022-0.064-0.022h-0.171l-0.064-0.022h-0.064l2.645-21.163c6.166 0.768 12.438 1.152 18.666 1.152zM93.12 168.335v-0.043c0.022-0.086 0.064-0.192 0.085-0.298 0.022-0.064 0.043-0.106 0.043-0.171h0.022c2.112-6.656 4.608-13.142 7.488-19.413l19.392 8.875c-2.582 5.654-4.822 11.498-6.656 17.408l-20.373-6.358zM419.733 267.77c-1.685 5.76-3.69 11.413-5.974 16.896v0.022c-0.022 0.042-0.022 0.064-0.022 0.064l-0.022 0.064c-0.043 0.106-0.106 0.214-0.149 0.341v0c-0.022 0.022-0.043 0.064-0.043 0.106l-0.022 0.022c-0.022 0.022-0.022 0.064-0.043 0.107 0 0 0 0.022-0.022 0.042-0.022 0.043-0.043 0.086-0.064 0.149 0 0.022-0.022 0.043-0.022 0.064 0 0-0.022 0.042-0.022 0.064-0.022 0.022-0.022 0.064-0.022 0.064-0.022 0.042-0.043 0.042-0.043 0.085-0.022 0.022-0.022 0.043-0.043 0.086l-0.086 0.171c0 0.022 0 0.042 0 0.042-0.022 0.043-0.043 0.086-0.064 0.107 0 0 0 0.022 0 0.064-0.022 0.022-0.043 0.043-0.043 0.086-0.022 0-0.022 0.042-0.022 0.042l-0.064 0.128v-0.022c-0.022 0.043-0.043 0.107-0.064 0.149l-0.022 0.022c0 0.022-0.022 0.064-0.043 0.107 0 0.042 0 0.042 0 0.042-0.043 0.043-0.043 0.086-0.064 0.128l-0.214 0.47c-0.043 0.128-0.086 0.214-0.128 0.32l-19.563-8.555c2.496-5.674 4.651-11.541 6.4-17.493l20.48 6.016zM402.005 187.855c-1.322-6.058-3.029-12.096-5.056-17.942l20.118-7.062c0.448 1.259 0.875 2.538 1.301 3.84l0.555 1.75c1.514 4.885 2.837 9.856 3.947 14.912l-20.864 4.502zM356.459 357.413c0 0 0 0.022 0 0-0.106 0.085-0.192 0.149-0.298 0.234h-0.043c-0.022 0.022-0.043 0.022-0.064 0.043s-0.043 0.022-0.043 0.022c-0.022 0.043-0.064 0.043-0.064 0.043-0.043 0.043-0.086 0.085-0.086 0.085-0.022 0.043-0.043 0.043-0.064 0.043-0.022 0.043-0.043 0.043-0.086 0.064 0 0.022-0.022 0.022-0.043 0.042s-0.064 0.022-0.086 0.064c0 0-0.022 0-0.043 0.022-0.043 0.022-0.086 0.064-0.128 0.086s-0.086 0.064-0.128 0.106h-0.022c-0.043 0.043-0.064 0.064-0.106 0.085l-0.022 0.022c-3.99 2.838-8.064 5.526-12.288 8l-10.858-18.346c5.312-3.157 10.517-6.678 15.424-10.496l13.077 16.875c-1.301 1.002-2.603 1.984-3.947 2.965-0.022 0-0.043 0.022-0.086 0.043zM216.619 299.471c0 0-31.659-126.826-22.336-160.917 9.302-34.112 44.501-54.166 78.613-44.842 34.112 9.301 54.187 44.502 44.864 78.613-9.344 34.091-101.142 127.147-101.142 127.147zM267.243 114.277c-22.698-6.229-46.166 7.168-52.374 29.888s7.125 46.187 29.888 52.416c22.72 6.208 46.187-7.168 52.394-29.909 6.229-22.699-7.147-46.166-29.909-52.394z" />
<glyph unicode="&#xe626;" d="M467.088 391.189c-58.064 57.536-150.912 58.736-211.056 4.608-60.16 54.128-152.976 52.928-211.072-4.608-59.856-59.264-59.856-155.344 0-214.64 17.104-16.944 176.848-175.056 176.848-175.056 18.928-18.752 49.536-18.752 68.448 0 0 0 174.912 173.152 176.848 175.056 59.872 59.296 59.872 155.376-0.016 214.64zM444.288 199.141l-176.848-175.056c-6.288-6.256-16.544-6.256-22.8 0l-176.848 175.056c-47.2 46.72-47.2 122.736 0 169.456 45.504 45.040 118.656 46.624 166.544 3.552l21.696-19.52 21.68 19.52c47.904 43.072 121.056 41.504 166.56-3.552 47.2-46.704 47.2-122.72 0.016-169.456zM148.048 355.413c4.432 0 8-3.584 8-8s-3.584-8-8-8h-0.016c-28.704 0-51.984-23.28-51.984-51.984v-0.016c0-4.416-3.584-8-8-8s-8 3.584-8 8v0c0 37.536 30.416 67.952 67.936 67.984 0.032 0 0.032 0.016 0.064 0.016z" />
<glyph unicode="&#xe627;" d="M510.096 274.517c-4.432 12.784-15.808 22.144-29.504 24.176l-133.216 19.808-57.904 120.224c-6.096 12.624-19.136 20.704-33.472 20.704s-27.376-8.080-33.472-20.704l-57.904-120.224-133.232-19.808c-13.68-2.032-25.056-11.392-29.472-24.176-4.4-12.816-1.072-26.928 8.592-36.56l97.632-97.472-22.64-135.216c-2.304-13.616 3.6-27.28 15.168-35.248 6.352-4.368 13.824-6.592 21.296-6.592 6.144 0 12.304 1.504 17.888 4.496l116.144 62.528 116.16-62.528c5.584-2.992 11.744-4.496 17.872-4.496 7.472 0 14.944 2.224 21.312 6.592 11.568 7.968 17.44 21.632 15.152 35.248l-22.656 135.216 97.664 97.472c9.648 9.648 12.96 23.76 8.592 36.56zM377.408 165.621c-8.192-8.16-11.904-19.664-10.032-30.944l22.656-135.216-116.16 62.496c-5.568 3.008-11.712 4.496-17.888 4.496-6.144 0-12.304-1.504-17.872-4.496l-116.16-62.496 22.656 135.216c1.888 11.28-1.824 22.784-10.016 30.944l-97.632 97.472 133.216 19.84c12.176 1.808 22.656 9.424 27.888 20.288l57.936 120.192 57.92-120.208c5.248-10.864 15.712-18.464 27.872-20.288l133.248-19.84-97.632-97.456z" />
<glyph unicode="&#xe628;" d="M512 315.429l-256 128-256-128 256-128 256 128zM256 400.944l171.029-85.515-171.029-85.515-171.029 85.515 171.029 85.515zM460.722 245.068l51.278-25.639-256-128-256 128 51.278 25.639 204.722-102.361zM460.722 149.068l51.278-25.639-256-128-256 128 51.278 25.639 204.722-102.361z" />
<glyph unicode="&#xe629;" d="M490.594 331.375c-44.404 6.384-91.691 11.008-141.038 13.61l82.444 82.444-32 32-112.279-112.278c-10.503 0.184-21.078 0.278-31.721 0.278v0l-128 128-32-32 97.098-97.098c-60.461-2.121-118.169-7.262-171.693-14.956-13.766-53.863-21.405-113.376-21.405-175.946s7.639-122.083 21.402-175.945c71.821-10.326 151.17-16.055 234.598-16.055 83.428 0 162.775 5.729 234.594 16.055 13.767 53.862 21.406 113.375 21.406 175.945s-7.639 122.083-21.406 175.946zM431.946 38.132c-53.865-6.883-113.375-10.703-175.946-10.703-62.571 0-122.083 3.82-175.946 10.703-10.324 35.908-16.054 75.583-16.054 117.297 0 41.715 5.729 81.39 16.054 117.298 53.863 6.883 113.375 10.702 175.946 10.702 62.568 0 122.081-3.819 175.943-10.702 10.328-35.908 16.057-75.583 16.057-117.298 0-41.714-5.729-81.389-16.054-117.297z" />
<glyph unicode="&#xe62a;" d="M424-36.571h-336c-13.255 0-24 10.745-24 24 0 34.431 14.534 76.102 38.879 111.471 20.346 29.559 45.342 51.81 72.339 64.805-11.899 10.822-22.147 24.013-30.254 39.061-13 24.131-19.873 52.024-19.873 80.664 0 39.803 13.102 77.411 36.893 105.895 24.832 29.73 58.221 46.104 94.016 46.104s69.184-16.374 94.017-46.105c23.79-28.484 36.893-66.091 36.893-105.895 0-28.64-6.872-56.533-19.872-80.664-8.107-15.048-18.355-28.239-30.255-39.061 26.997-12.995 51.993-35.246 72.339-64.805 24.344-35.368 38.878-77.039 38.878-111.47 0-13.255-10.745-24-24-24zM115.037 11.429h281.926c-4.613 19.67-14.26 41.192-27.381 60.255-20.727 30.113-46.588 49.811-72.819 55.463-11.053 2.382-18.944 12.155-18.944 23.462v17.146c0 8.63 4.633 16.595 12.135 20.861 29.739 16.916 48.956 54.133 48.956 94.813 0 57.346-37.192 104-82.909 104-45.716 0-82.909-46.654-82.909-104 0-40.68 19.217-77.896 48.957-94.813 7.501-4.267 12.134-12.231 12.134-20.861v-17.146c0-11.307-7.892-21.080-18.944-23.462-26.231-5.652-52.092-25.35-72.82-55.463-13.123-19.063-22.768-40.585-27.382-60.255z" />
<glyph unicode="&#xe62b;" d="M488-36.571h-336c-13.255 0-24 10.745-24 24 0 34.431 14.534 76.102 38.879 111.471 20.346 29.559 45.342 51.81 72.339 64.805-11.899 10.822-22.147 24.013-30.254 39.061-13 24.131-19.873 52.024-19.873 80.664 0 39.803 13.102 77.411 36.893 105.895 24.832 29.73 58.221 46.104 94.016 46.104s69.184-16.374 94.017-46.105c23.79-28.484 36.893-66.091 36.893-105.895 0-28.64-6.872-56.533-19.872-80.664-8.107-15.048-18.355-28.239-30.255-39.061 26.997-12.995 51.993-35.246 72.339-64.805 24.344-35.368 38.878-77.039 38.878-111.47 0-13.255-10.745-24-24-24zM179.037 11.429h281.926c-4.613 19.67-14.26 41.192-27.381 60.255-20.727 30.113-46.588 49.811-72.819 55.463-11.053 2.382-18.944 12.155-18.944 23.462v17.146c0 8.63 4.633 16.595 12.135 20.861 29.739 16.916 48.956 54.133 48.956 94.813 0 57.346-37.192 104-82.909 104s-82.909-46.654-82.909-104c0-40.68 19.217-77.896 48.957-94.813 7.501-4.267 12.134-12.231 12.134-20.861v-17.146c0-11.307-7.892-21.080-18.944-23.462-26.231-5.652-52.092-25.35-72.82-55.463-13.123-19.063-22.768-40.585-27.382-60.255zM98.557 43.429h-47.52c4.614 19.67 14.259 41.192 27.38 60.255 20.728 30.113 46.589 49.811 72.82 55.463 11.053 2.382 18.944 12.155 18.944 23.462v17.146c0 8.63-4.633 16.595-12.134 20.861-29.74 16.917-48.957 54.133-48.957 94.813 0 57.346 37.192 104 82.909 104 3.127 0 6.213-0.226 9.251-0.651 13.179 14.667 28.117 26.587 44.321 35.502-16.596 8.616-34.75 13.149-53.571 13.149-35.795 0-69.184-16.374-94.017-46.105-23.79-28.484-36.892-66.092-36.892-105.895 0-28.64 6.872-56.533 19.873-80.664 8.107-15.048 18.355-28.238 30.254-39.061-26.997-12.995-51.993-35.246-72.339-64.805-24.345-35.368-38.879-77.039-38.879-111.47 0-13.255 10.745-24 24-24h66.193c0.738 15.513 3.599 31.706 8.364 48z" />
<glyph unicode="&#xe62c;" d="M496.131 39.731l-121.276 103.147c-12.537 11.283-25.945 16.463-36.776 15.963 28.628 33.534 45.921 77.039 45.921 124.588 0 106.039-85.961 192-192 192-106.038 0-192-85.961-192-192 0-106.039 85.961-192 192-192 47.549 0 91.054 17.293 124.588 45.922-0.5-10.831 4.68-24.239 15.963-36.776l103.147-121.276c17.661-19.623 46.511-21.277 64.11-3.678s15.946 46.449-3.677 64.11zM192 155.429c-70.692 0-128 57.308-128 128s57.308 128 128 128 128-57.308 128-128-57.307-128-128-128z" />
<glyph unicode="&#xe62d;" d="M496.131 39.731l-121.276 103.147c-12.537 11.283-25.945 16.463-36.776 15.963 28.628 33.534 45.921 77.039 45.921 124.588 0 106.039-85.961 192-192 192-106.038 0-192-85.961-192-192 0-106.039 85.961-192 192-192 47.549 0 91.054 17.293 124.588 45.922-0.5-10.831 4.68-24.239 15.963-36.776l103.147-121.276c17.661-19.623 46.511-21.277 64.11-3.678s15.946 46.449-3.677 64.11zM192 155.429c-70.692 0-128 57.308-128 128s57.308 128 128 128 128-57.308 128-128-57.307-128-128-128zM224 379.429h-64v-64h-64v-64h64v-64h64v64h64v64h-64z" />
<glyph unicode="&#xe62e;" d="M496.131 39.731l-121.276 103.147c-12.537 11.283-25.945 16.463-36.776 15.963 28.628 33.534 45.921 77.039 45.921 124.588 0 106.039-85.961 192-192 192-106.038 0-192-85.961-192-192 0-106.039 85.961-192 192-192 47.549 0 91.054 17.293 124.588 45.922-0.5-10.831 4.68-24.239 15.963-36.776l103.147-121.276c17.661-19.623 46.511-21.277 64.11-3.678s15.946 46.449-3.677 64.11zM192 155.429c-70.692 0-128 57.308-128 128s57.308 128 128 128 128-57.308 128-128-57.307-128-128-128zM96 315.429h192v-64h-192z" />
<glyph unicode="&#xe62f;" d="M448 251.429h8c13.2 0 24 10.8 24 24v80c0 13.2-10.8 24-24 24h-8v96h-64v-96h-8c-13.2 0-24-10.8-24-24v-80c0-13.2 10.8-24 24-24h8v-288h64v288zM384 347.429h64v-64h-64v64zM296 59.429c13.2 0 24 10.8 24 24v80c0 13.2-10.8 24-24 24h-8v288h-64v-288h-8c-13.2 0-24-10.8-24-24v-80c0-13.2 10.8-24 24-24h8v-96h64v96h8zM224 155.429h64v-64h-64v64zM136 251.429c13.2 0 24 10.8 24 24v80c0 13.2-10.8 24-24 24h-8v96h-64v-96h-8c-13.2 0-24-10.8-24-24v-80c0-13.2 10.8-24 24-24h8v-288h64v288h8zM64 347.429h64v-64h-64v64z" />
<glyph unicode="&#xe630;" d="M224 411.429v8c0 13.2-10.8 24-24 24h-80c-13.2 0-24-10.8-24-24v-8h-96v-64h96v-8c0-13.2 10.8-24 24-24h80c13.2 0 24 10.8 24 24v8h288v64h-288zM128 347.429v64h64v-64h-64zM416 259.429c0 13.2-10.8 24-24 24h-80c-13.2 0-24-10.8-24-24v-8h-288v-64h288v-8c0-13.2 10.8-24 24-24h80c13.2 0 24 10.8 24 24v8h96v64h-96v8zM320 187.429v64h64v-64h-64zM224 99.429c0 13.2-10.8 24-24 24h-80c-13.2 0-24-10.8-24-24v-8h-96v-64h96v-8c0-13.2 10.8-24 24-24h80c13.2 0 24 10.8 24 24v8h288v64h-288v8zM128 27.429v64h64v-64h-64z" />
<glyph unicode="&#xe631;" d="M64 27.429h448v-64h-512v512h64zM144 59.429c-26.51 0-48 21.49-48 48s21.49 48 48 48c1.414 0 2.811-0.074 4.194-0.193l51.596 85.993c-4.92 7.535-7.79 16.531-7.79 26.201 0 26.51 21.49 48 48 48 26.51 0 48-21.49 48-48 0-9.671-2.87-18.666-7.79-26.201l51.596-85.993c1.383 0.119 2.78 0.193 4.194 0.193 1.068 0 2.124-0.047 3.175-0.115l85.178 149.061c-5.268 7.704-8.353 17.018-8.353 27.055 0 26.51 21.49 48 48 48 26.51 0 48-21.49 48-48 0-26.51-21.49-48-48-48-1.070 0-2.124 0.047-3.175 0.116l-85.178-149.062c5.268-7.703 8.353-17.018 8.353-27.055 0-26.51-21.49-48-48-48-26.51 0-48 21.49-48 48 0 9.67 2.87 18.666 7.789 26.201l-51.595 85.992c-1.383-0.119-2.78-0.193-4.194-0.193s-2.811 0.073-4.194 0.193l-51.596-85.993c4.92-7.534 7.79-16.53 7.79-26.2 0-26.51-21.49-48-48-48z" />
<glyph unicode="&#xe632;" d="M0 59.429h512v-64h-512zM64 187.429h64v-96h-64zM160 315.429h64v-224h-64zM256 219.429h64v-128h-64zM352 411.429h64v-320h-64z" />
<glyph unicode="&#xe633;" d="M256 475.429c141.385 0 256-114.615 256-256s-114.615-256-256-256-256 114.615-256 256 114.615 256 256 256zM256 11.429c114.875 0 208 93.125 208 208s-93.125 208-208 208-208-93.125-208-208 93.125-208 208-208zM320 347.429c17.673 0 32-14.327 32-32s-14.327-32-32-32h-82.744l137.371-137.372c12.497-12.497 12.497-32.759 0-45.256-6.248-6.248-14.438-9.372-22.627-9.372s-16.379 3.124-22.627 9.372l-137.373 137.373v-82.745c0-17.673-14.327-32-32-32s-32 14.327-32 32v192h192z" />
<glyph unicode="&#xe634;" d="M512 219.429c0-141.385-114.615-256-256-256s-256 114.615-256 256 114.615 256 256 256 256-114.615 256-256zM48 219.429c0-114.875 93.125-208 208-208s208 93.125 208 208-93.125 208-208 208-208-93.125-208-208zM278.627 370.057l128-128.001c12.497-12.496 12.497-32.757 0-45.254s-32.758-12.497-45.255 0l-73.372 73.372v-178.745c0-17.673-14.327-32-32-32s-32 14.327-32 32v178.745l-73.372-73.373c-12.497-12.497-32.759-12.497-45.256 0-6.248 6.249-9.372 14.439-9.372 22.628s3.124 16.379 9.372 22.627l128 128.001c12.497 12.496 32.759 12.496 45.255 0z" />
<glyph unicode="&#xe635;" d="M256 475.429c-141.385 0-256-114.615-256-256s114.615-256 256-256 256 114.615 256 256-114.615 256-256 256zM256 11.429c-114.875 0-208 93.125-208 208s93.125 208 208 208 208-93.125 208-208-93.125-208-208-208zM192 347.429c-17.673 0-32-14.327-32-32s14.327-32 32-32h82.744l-137.371-137.372c-12.497-12.497-12.497-32.759 0-45.256 6.248-6.248 14.438-9.372 22.627-9.372s16.379 3.124 22.627 9.372l137.373 137.373v-82.745c0-17.673 14.327-32 32-32s32 14.327 32 32v192h-192z" />
<glyph unicode="&#xe636;" d="M256 475.429c-141.385 0-256-114.615-256-256s114.615-256 256-256 256 114.615 256 256-114.615 256-256 256zM256 11.429c-114.875 0-208 93.125-208 208s93.125 208 208 208 208-93.125 208-208-93.125-208-208-208zM406.628 242.056l-128.001 128c-12.496 12.497-32.757 12.497-45.254 0s-12.497-32.758 0-45.255l73.372-73.372h-178.745c-17.673 0-32-14.327-32-32s14.327-32 32-32h178.745l-73.373-73.372c-12.497-12.497-12.497-32.759 0-45.256 6.249-6.248 14.439-9.372 22.628-9.372s16.379 3.124 22.627 9.372l128.001 128c12.496 12.497 12.496 32.759 0 45.255z" />
<glyph unicode="&#xe637;" d="M256-36.571c-141.385 0-256 114.615-256 256s114.615 256 256 256 256-114.615 256-256-114.615-256-256-256zM256 427.429c-114.875 0-208-93.125-208-208s93.125-208 208-208 208 93.125 208 208-93.125 208-208 208zM192 91.429c-17.673 0-32 14.327-32 32s14.327 32 32 32h82.744l-137.371 137.372c-12.497 12.497-12.497 32.759 0 45.256 6.248 6.248 14.438 9.372 22.627 9.372s16.379-3.124 22.627-9.372l137.373-137.373v82.745c0 17.673 14.327 32 32 32s32-14.327 32-32v-192h-192z" />
<glyph unicode="&#xe638;" d="M512 219.429c0 141.385-114.615 256-256 256s-256-114.615-256-256 114.615-256 256-256 256 114.615 256 256zM48 219.429c0 114.875 93.125 208 208 208s208-93.125 208-208-93.125-208-208-208-208 93.125-208 208zM278.627 68.801l128 128.001c12.497 12.496 12.497 32.757 0 45.254s-32.758 12.497-45.255 0l-73.372-73.372v178.745c0 17.673-14.327 32-32 32s-32-14.327-32-32v-178.745l-73.372 73.373c-12.497 12.497-32.759 12.497-45.256 0-6.248-6.249-9.372-14.439-9.372-22.628s3.124-16.379 9.372-22.627l128-128.001c12.497-12.496 32.759-12.496 45.255 0z" />
<glyph unicode="&#xe639;" d="M256-36.571c141.385 0 256 114.615 256 256s-114.615 256-256 256-256-114.615-256-256 114.615-256 256-256zM256 427.429c114.875 0 208-93.125 208-208s-93.125-208-208-208-208 93.125-208 208 93.125 208 208 208zM320 91.429c17.673 0 32 14.327 32 32s-14.327 32-32 32h-82.744l137.371 137.372c12.497 12.497 12.497 32.759 0 45.256-6.248 6.248-14.438 9.372-22.627 9.372s-16.379-3.124-22.627-9.372l-137.373-137.373v82.745c0 17.673-14.327 32-32 32s-32-14.327-32-32v-192h192z" />
<glyph unicode="&#xe63a;" d="M256 475.429c141.385 0 256-114.615 256-256s-114.615-256-256-256-256 114.615-256 256 114.615 256 256 256zM256 11.429c114.875 0 208 93.125 208 208s-93.125 208-208 208-208-93.125-208-208 93.125-208 208-208zM105.372 242.056l128.001 128c12.496 12.497 32.757 12.497 45.254 0s12.497-32.758 0-45.255l-73.372-73.372h178.745c17.673 0 32-14.327 32-32s-14.327-32-32-32h-178.745l73.373-73.372c12.497-12.497 12.497-32.759 0-45.256-6.249-6.248-14.439-9.372-22.628-9.372s-16.379 3.124-22.627 9.372l-128.001 128c-12.496 12.497-12.496 32.759 0 45.255z" />
<glyph unicode="&#xe63b;" d="M421.006 180.689c-6.824 6.723-21.957 10.283-44.986 10.586-15.589 0.172-34.351-1.201-54.085-3.964-8.837 5.099-17.946 10.647-25.094 17.329-19.231 17.958-35.284 42.886-45.288 70.297 0.652 2.56 1.207 4.81 1.724 7.106 0 0 10.833 61.53 7.965 82.333-0.395 2.853-0.637 3.681-1.404 5.898l-0.941 2.417c-2.948 6.796-8.724 13.997-17.783 13.604l-5.458 0.172c-10.1 0-18.332-5.166-20.493-12.887-6.569-24.217 0.209-60.446 12.491-107.369l-3.144-7.643c-8.794-21.438-19.815-43.030-29.539-62.079l-1.264-2.476c-10.23-20.019-19.512-37.013-27.927-51.411l-8.688-4.594c-0.632-0.334-15.522-8.209-19.014-10.322-29.628-17.691-49.261-37.77-52.518-53.708-1.036-5.085-0.265-11.593 5.007-14.607l8.403-4.229c3.645-1.826 7.489-2.751 11.427-2.751 21.102 0 45.6 26.286 79.348 85.183 38.965 12.684 83.327 23.228 122.207 29.045 29.629-16.684 66.071-28.273 89.071-28.273 4.084 0 7.606 0.389 10.466 1.148 4.411 1.168 8.129 3.683 10.396 7.096 4.463 6.716 5.367 15.966 4.156 25.438-0.361 2.812-2.606 6.288-5.035 8.661zM105.823 68.405c3.848 10.521 19.080 31.322 41.602 49.778 1.416 1.148 4.904 4.416 8.097 7.451-23.551-37.562-39.323-52.533-49.699-57.229zM239.217 375.586c6.783 0 10.642-17.097 10.962-33.127 0.32-16.030-3.429-27.28-8.079-35.604-3.851 12.324-5.713 31.75-5.713 44.452 0 0-0.283 24.279 2.83 24.279zM199.426 156.682c4.725 8.458 9.641 17.378 14.665 26.839 12.246 23.158 19.979 41.278 25.739 56.173 11.455-20.842 25.722-38.56 42.493-52.756 2.092-1.771 4.309-3.551 6.637-5.325-34.105-6.748-63.582-14.955-89.534-24.931zM414.452 158.603c-2.077-1.299-8.027-2.050-11.854-2.050-12.353 0-27.636 5.647-49.063 14.833 8.234 0.609 15.781 0.919 22.55 0.919 12.391 0 16.060 0.054 28.175-3.036s12.269-9.367 10.192-10.666zM451.716 375.714l-71.432 71.431c-15.556 15.556-46.284 28.284-68.284 28.284h-240c-22 0-40-18-40-40v-432c0-22 18-40 40-40h368c22 0 40 18 40 40v304c0 22-12.728 52.729-28.284 68.285zM429.089 353.086c1.565-1.565 3.125-3.487 4.64-5.657h-81.729v81.728c2.17-1.515 4.092-3.075 5.657-4.64l71.432-71.431zM448 3.429c0-4.336-3.664-8-8-8h-368c-4.336 0-8 3.664-8 8v432c0 4.336 3.664 8 8 8h240c2.416 0 5.127-0.305 8-0.852v-127.148h127.148c0.547-2.873 0.852-5.583 0.852-8v-304z" />
<glyph unicode="&#xe63c;" d="M345.11 239.588c-30.334 14.326-68.986 17.21-97.417-3.024 34.57 3.302 72.479-2.419 97.553-28.562 24 27.54 62.057 32.703 96.479 29.866-28.744 19.072-66.61 16.512-96.615 1.72zM332.824 172.554c-34.189 0.789-67.217-11.586-95.55-30.052-53.588 22.794-121.368 18.562-167.001-19.491 13.165 0.467 26.003 3.723 39.028 5.396 47.591 4.744 98.294-7.071 134.256-39.912 14.886 21.771 35.822 39.121 59.826 49.961 31.537 15.26 67.080 16.842 101.41 17.26-20.844 14.324-47.308 16.977-71.969 16.838zM451.716 375.714l-71.432 71.431c-15.556 15.556-46.284 28.284-68.284 28.284h-240c-22 0-40-18-40-40v-432c0-22 18-40 40-40h368c22 0 40 18 40 40v304c0 22-12.728 52.729-28.284 68.285zM429.089 353.086c1.565-1.565 3.125-3.487 4.64-5.657h-81.729v81.728c2.17-1.515 4.092-3.075 5.657-4.64l71.432-71.431zM448 3.429c0-4.336-3.664-8-8-8h-368c-4.336 0-8 3.664-8 8v432c0 4.336 3.664 8 8 8h240c2.416 0 5.127-0.305 8-0.852v-127.148h127.148c0.547-2.873 0.852-5.583 0.852-8v-304z" />
<glyph unicode="&#xe63d;" d="M319.889 237.483h22.106l-25.506-113.089-33.163 159.005h-53.275l-38.557-159.005-28.908 159.005h-55.697l56.546-255.941h54.419l38.147 151.354 34.128-151.354h50.168l64.815 255.941h-85.223zM451.716 375.714l-71.432 71.431c-15.556 15.556-46.284 28.284-68.284 28.284h-240c-22 0-40-18-40-40v-432c0-22 18-40 40-40h368c22 0 40 18 40 40v304c0 22-12.728 52.729-28.284 68.285zM429.089 353.086c1.565-1.565 3.125-3.487 4.64-5.657h-81.729v81.728c2.17-1.515 4.092-3.075 5.657-4.64l71.432-71.431zM448 3.429c0-4.336-3.664-8-8-8h-368c-4.336 0-8 3.664-8 8v432c0 4.336 3.664 8 8 8h240c2.416 0 5.127-0.305 8-0.852v-127.148h127.148c0.547-2.873 0.852-5.583 0.852-8v-304z" />
<glyph unicode="&#xe63e;" d="M371.514 283.429h-67.647l-47.866-70.516-47.87 70.516h-67.644l81.081-121.232-91.487-134.768h131.12v45.788h-30.278l25.078 37.497 55.698-83.285h70.221l-91.488 134.768zM451.716 375.714l-71.432 71.431c-15.556 15.556-46.284 28.284-68.284 28.284h-240c-22 0-40-18-40-40v-432c0-22 18-40 40-40h368c22 0 40 18 40 40v304c0 22-12.728 52.729-28.284 68.285zM429.089 353.086c1.565-1.565 3.125-3.487 4.64-5.657h-81.729v81.728c2.17-1.515 4.092-3.075 5.657-4.64l71.432-71.431zM448 3.429c0-4.336-3.664-8-8-8h-368c-4.336 0-8 3.664-8 8v432c0 4.336 3.664 8 8 8h240c2.416 0 5.127-0.305 8-0.852v-127.148h127.148c0.547-2.873 0.852-5.583 0.852-8v-304z" />
<glyph unicode="&#xe63f;" d="M208 411.429h48v-32h-48zM160 379.429h48v-32h-48zM208 347.429h48v-32h-48zM160 315.429h48v-32h-48zM208 283.429h48v-32h-48zM160 251.429h48v-32h-48zM208 219.429v-32h-48v-112c0-8.837 7.163-16 16-16h64c8.837 0 16 7.163 16 16v144h-48zM240 91.429h-64v32h64v-32zM451.716 375.714l-71.432 71.431c-15.556 15.556-46.284 28.284-68.284 28.284h-240c-22 0-40-18-40-40v-432c0-22 18-40 40-40h368c22 0 40 18 40 40v304c0 22-12.728 52.729-28.284 68.285zM429.089 353.086c1.565-1.565 3.125-3.487 4.64-5.657h-81.729v81.728c2.17-1.515 4.092-3.075 5.657-4.64l71.432-71.431zM448 3.429c0-4.336-3.664-8-8-8h-368c-4.336 0-8 3.664-8 8v432c0 4.336 3.664 8 8 8h240c2.416 0 5.127-0.305 8-0.852v-127.148h127.148c0.547-2.873 0.852-5.583 0.852-8v-304z" />
<glyph unicode="&#xe640;" d="M96 219.429h96v-32h-96v32zM96 155.429h96v-32h-96v32zM96 91.429h96v-32h-96v32zM451.716 375.714l-71.432 71.431c-15.556 15.556-46.284 28.284-68.284 28.284h-240c-22 0-40-18-40-40v-432c0-22 18-40 40-40h368c22 0 40 18 40 40v304c0 22-12.728 52.729-28.284 68.285zM429.089 353.086c1.565-1.565 3.125-3.487 4.64-5.657h-81.729v81.728c2.17-1.515 4.092-3.075 5.657-4.64l71.432-71.431zM448 3.429c0-4.336-3.664-8-8-8h-368c-4.336 0-8 3.664-8 8v432c0 4.336 3.664 8 8 8h240c2.416 0 5.127-0.305 8-0.852v-127.148h127.148c0.547-2.873 0.852-5.583 0.852-8v-304zM288 123.429h94.396c-7.413-36.516-39.693-64-78.396-64-44.183 0-80 35.817-80 80 0 38.703 27.485 70.983 64 78.396v-94.396zM336 251.429c44.183 0 80-35.817 80-80 0-5.479-0.554-10.83-1.604-16h-94.396v94.396c5.17 1.050 10.521 1.604 16 1.604z" />
<glyph unicode="&#xe641;" d="M224 187.429l-32 32-96-96 96-96 32 32-64 64zM288 59.429l32-32 96 96-96 96-32-32 64-64zM451.716 375.714l-71.432 71.431c-15.556 15.556-46.284 28.284-68.284 28.284h-240c-22 0-40-18-40-40v-432c0-22 18-40 40-40h368c22 0 40 18 40 40v304c0 22-12.728 52.729-28.284 68.285zM429.089 353.086c1.565-1.565 3.125-3.487 4.64-5.657h-81.729v81.728c2.17-1.515 4.092-3.075 5.657-4.64l71.432-71.431zM448 3.429c0-4.336-3.664-8-8-8h-368c-4.336 0-8 3.664-8 8v432c0 4.336 3.664 8 8 8h240c2.416 0 5.127-0.305 8-0.852v-127.148h127.148c0.547-2.873 0.852-5.583 0.852-8v-304z" />
<glyph unicode="&#xe642;" d="M192 169.706v57.113c0 7.564 3.348 14.718 9.427 20.143 6.080 5.424 14.096 8.413 22.573 8.413v28.555c-35.2 0-64-25.7-64-57.111v-42.833c0-7.886-7.164-14.279-16-14.279h-16v-28.555h16c8.837 0 16-6.395 16-14.279v-42.838c0-31.407 28.8-57.107 64-57.107v28.556c-8.477 0-16.494 2.988-22.573 8.413-6.079 5.426-9.427 12.577-9.427 20.139v57.117c0 7.885-7.164 14.277-16 14.277 8.837-0.001 16 6.394 16 14.276zM320 141.152v-57.117c0-7.562-3.348-14.713-9.427-20.139-6.079-5.425-14.095-8.413-22.573-8.413v-28.556c35.201 0 64 25.7 64 57.107v42.838c0 7.886 7.164 14.279 16 14.279h16v28.555h-16c-8.836 0-16 6.395-16 14.279v42.834c0 31.412-28.799 57.111-64 57.111v-28.555c8.479 0 16.494-2.989 22.573-8.415 6.080-5.424 9.427-12.578 9.427-20.142v-57.114c0-7.883 7.164-14.276 16-14.276-8.836 0.001-16-6.394-16-14.276zM451.716 375.714l-71.432 71.431c-15.556 15.556-46.284 28.284-68.284 28.284h-240c-22 0-40-18-40-40v-432c0-22 18-40 40-40h368c22 0 40 18 40 40v304c0 22-12.728 52.729-28.284 68.285zM429.089 353.086c1.565-1.565 3.125-3.487 4.64-5.657h-81.729v81.728c2.17-1.515 4.092-3.075 5.657-4.64l71.432-71.431zM448 3.429c0-4.336-3.664-8-8-8h-368c-4.336 0-8 3.664-8 8v432c0 4.336 3.664 8 8 8h240c2.416 0 5.127-0.305 8-0.852v-127.148h127.148c0.547-2.873 0.852-5.583 0.852-8v-304z" />
<glyph unicode="&#xe643;" d="M480 379.429h-14.192c-8.4 0-16.464-3.312-22.464-9.216l-43.344-42.752v19.968c0 26.512-21.504 48-48 48h-304c-26.464 0-48-21.52-48-48v-256c0-26.496 21.488-48 48-48h304c26.496 0 48 21.504 48 48v19.536l43.344-42.752c6-5.904 14.064-9.216 22.464-9.216h14.192c17.664 0 32 14.32 32 32v256.432c0 17.68-14.336 32-32 32zM48 75.429c-8.832 0-16 7.184-16 16v256c0 8.848 7.152 16 16 16h304c8.816 0 16-7.168 16-16v-256c0-8.816-7.184-16-16-16h-304zM480 90.997h-16l-64 64v0.432l-16 16v96l80 80h16v-256.432z" />
<glyph unicode="&#xe644;" d="M486.256 272.549l-49.024 9.824c-2.464 7.088-5.376 13.968-8.592 20.624l27.776 41.664c8.464 12.688 6.784 29.6-4 40.368l-30.784 30.784c-6.192 6.192-14.368 9.376-22.656 9.376-6.128 0-12.32-1.76-17.712-5.376l-41.664-27.76c-6.688 3.232-13.568 6.112-20.656 8.576l-9.824 49.040c-2.976 14.976-16.128 25.728-31.376 25.728h-43.52c-15.248 0-28.384-10.768-31.376-25.728l-9.824-49.040c-7.088-2.464-13.968-5.36-20.624-8.576l-41.648 27.76c-5.424 3.616-11.6 5.376-17.744 5.376-8.272 0-16.448-3.184-22.64-9.376l-30.768-30.784c-10.784-10.784-12.464-27.68-4-40.368l27.76-41.664c-3.232-6.672-6.112-13.552-8.576-20.64l-49.056-9.808c-14.96-2.992-25.728-16.128-25.728-31.376v-43.52c0-15.248 10.768-28.4 25.728-31.376l49.040-9.84c2.464-7.088 5.36-13.968 8.576-20.624l-27.744-41.664c-8.464-12.688-6.784-29.6 4-40.368l30.784-30.784c6.192-6.192 14.368-9.376 22.64-9.376 6.144 0 12.336 1.776 17.728 5.376l41.664 27.776c6.672-3.248 13.552-6.128 20.64-8.592l9.808-49.024c2.992-14.976 16.128-25.744 31.376-25.744h43.52c15.248 0 28.4 10.784 31.376 25.744l9.84 49.024c7.088 2.464 13.968 5.376 20.624 8.592l41.664-27.776c5.408-3.6 11.6-5.376 17.712-5.376 8.288 0 16.464 3.184 22.656 9.376l30.784 30.784c10.784 10.784 12.464 27.68 4 40.368l-27.776 41.664c3.248 6.688 6.128 13.568 8.592 20.656l49.024 9.808c14.96 2.96 25.744 16.128 25.744 31.376v43.52c0 15.248-10.784 28.384-25.744 31.376zM430.944 187.829c-11.12-2.224-20.224-10.16-23.936-20.88-2.064-5.904-4.464-11.632-7.152-17.184-4.976-10.224-4.128-22.288 2.16-31.712l27.776-41.664-30.784-30.784-41.664 27.776c-5.344 3.568-11.536 5.376-17.744 5.376-4.752 0-9.536-1.056-13.936-3.184-5.568-2.688-11.28-5.12-17.216-7.184-10.688-3.712-18.624-12.816-20.848-23.936l-9.84-49.056h-43.52l-9.808 49.056c-2.224 11.12-10.16 20.224-20.864 23.936-5.904 2.064-11.648 4.464-17.2 7.152-4.416 2.16-9.184 3.216-13.952 3.216-6.224 0-12.4-1.808-17.744-5.376l-41.664-27.776-30.784 30.784 27.76 41.664c6.288 9.44 7.104 21.504 2.192 31.68-2.688 5.568-5.104 11.28-7.168 17.216-3.712 10.688-12.832 18.624-23.936 20.848l-49.040 9.84-0.032 43.536 49.056 9.808c11.104 2.224 20.224 10.16 23.936 20.864 2.064 5.904 4.448 11.648 7.152 17.2 4.96 10.208 4.128 22.272-2.176 31.696l-27.744 41.664 30.768 30.784 41.664-27.76c5.344-3.568 11.536-5.376 17.744-5.376 4.752 0 9.52 1.056 13.936 3.184 5.552 2.688 11.28 5.104 17.2 7.168 10.704 3.712 18.64 12.832 20.864 23.936l9.824 49.040 43.52 0.016 9.808-49.056c2.224-11.104 10.16-20.224 20.88-23.936 5.904-2.064 11.632-4.448 17.184-7.152 4.432-2.144 9.184-3.2 13.968-3.2 6.224 0 12.4 1.808 17.744 5.376l41.664 27.76 30.784-30.784-27.776-41.664c-6.288-9.44-7.088-21.488-2.192-31.68 2.688-5.552 5.12-11.28 7.184-17.2 3.712-10.704 12.816-18.64 23.936-20.864l49.024-9.824 0.048-43.52-49.056-9.824zM256 331.413c-61.84 0-112-50.16-112-112 0-61.856 50.16-112 112-112s112 50.16 112 112c0 61.84-50.16 112-112 112zM256 121.397c-54.112 0-98 43.904-98 98 0 54.112 43.888 98 98 98 54.096 0 98-43.888 98-98 0-54.096-43.904-98-98-98zM256 283.413c-35.36 0-64-28.64-64-64 0-35.344 28.64-64 64-64 35.344 0 64 28.656 64 64 0 35.344-28.656 64-64 64zM256 171.397c-26.496 0-48 21.504-48 48s21.504 48 48 48 48-21.504 48-48c0-26.496-21.504-48-48-48z" />
<glyph unicode="&#xe645;" d="M256 315.413c-70.704 0-128-57.296-128-128 0-70.688 57.296-128 128-128 70.688 0 128 57.312 128 128 0 70.688-57.312 128-128 128zM328.88 124.933c-34.496-40.256-95.088-44.912-135.344-10.4-40.272 34.496-44.912 95.104-10.4 135.344 34.48 40.272 95.088 44.912 135.344 10.4 40.24-34.48 44.896-95.104 10.4-135.344zM256 251.413c4.416 0 8-3.584 8-8s-3.584-8-8-8c-26.512 0-47.984-21.488-48-47.984v-0.032c0-4.4-3.584-8-8-8s-8 3.6-8 8v0.032c0.016 35.328 28.656 63.984 64 63.984zM471.872 330.757l-69.344 11.568-21.968 54.944c-7.344 18.32-24.848 30.16-44.56 30.16h-160c-19.712 0-37.216-11.84-44.576-30.176l-21.952-54.928-69.328-11.568c-23.264-3.856-40.144-23.76-40.144-47.328v-240c0-26.464 21.536-48 48-48h416c26.464 0 48 21.536 48 48v240c0 23.568-16.88 43.472-40.128 47.328zM480 43.429c0-8.848-7.152-16-16-16h-416c-8.848 0-16 7.152-16 16v240c0 7.824 5.664 14.496 13.376 15.776l87.104 14.512 28.656 71.648c2.448 6.064 8.32 10.064 14.864 10.064h160c6.528 0 12.4-3.984 14.848-10.064l28.656-71.648 87.12-14.512c7.712-1.28 13.376-7.952 13.376-15.776v-240z" />
<glyph unicode="&#xe646;" d="M502.256 253.301l-80 128c-11.68 18.704-32.192 30.080-54.256 30.080h-304c-35.344 0-64-28.656-64-64v-256c0-35.344 28.656-64 64-64h304c22.064 0 42.56 11.376 54.256 30.096l80 128c12.992 20.72 12.992 47.072 0 67.824zM475.12 202.437l-80-128.032c-5.872-9.408-16.032-15.024-27.12-15.024h-304c-17.648 0-32 14.368-32 32v256c0 17.648 14.352 32 32 32h304c11.088 0 21.248-5.632 27.12-15.024l80-128c6.448-10.32 6.448-23.632 0-33.92zM368 267.381c-26.528 0-48-21.488-48-48s21.472-48 48-48c26.496 0 48 21.504 48 48 0 26.512-21.504 48-48 48zM368 187.365c-17.68 0-32 14.336-32 32s14.32 32 32 32c17.664 0 32-14.336 32-32 0-17.648-14.336-32-32-32z" />
<glyph unicode="&#xe647;" d="M256 475.429c-97.216 0-176-78.784-176-176 0-64.496 59.008-132.848 80.496-192.88 32.048-89.52 28.496-143.12 95.504-143.12 68 0 63.44 53.344 95.504 142.752 21.552 60.16 80.496 129.248 80.496 193.248 0 97.216-78.816 176-176 176zM297.472 40.613l-79.328-9.904c-2.832 8.192-5.872 17.776-9.568 30.288-0.048 0.16-0.112 0.336-0.144 0.496l99.008 12.368c-1.408-4.72-2.912-9.68-4.224-14.128-2.096-7.184-3.968-13.424-5.744-19.12zM203.776 76.901c-2.912 9.632-6.192 19.776-9.84 30.528h124.256c-1.968-5.744-3.936-11.504-5.632-16.944l-108.784-13.584zM256-4.571c-16.208 0-23.664 1.872-31.952 20l67.808 8.496c-9.824-26.464-16.976-28.496-35.856-28.496zM330.752 139.429h-149.328c-7.968 17.28-17.536 34.56-26.976 51.472-20.88 37.36-42.448 76-42.448 108.528 0 79.408 64.592 144 144 144 79.408 0 144-64.592 144-144 0-32.288-21.6-71.136-42.496-108.72-9.344-16.848-18.848-34.096-26.752-51.28zM256 395.429c4.4 0 8-3.584 8-8s-3.584-8-8-8c-44.112 0-80-35.888-80-80 0-4.416-3.584-8-8-8-4.416 0-8 3.584-8 8 0 52.944 43.056 96 96 96z" />
<glyph unicode="&#xe648;" d="M256.032 191.493c52.944 0 96 43.072 96 96s-43.056 96-96 96c-52.944 0-96-43.056-96-96s43.056-96 96-96zM256.032 367.493c44.128 0 80-35.872 80-80s-35.872-80-80-80c-44.128 0-80 35.872-80 80s35.872 80 80 80zM256 475.429c-105.888 0-192-85.056-192-192.016 0-112 96.016-226.576 166.016-307.104 0.256-0.32 11.488-12.88 25.376-12.88 0.032 0 1.168 0 1.232 0 13.872 0 25.12 12.56 25.376 12.88 70.032 80.528 166.032 195.088 166.032 307.104 0 106.96-86.128 192.016-192.032 192.016zM257.872-2.699c-0.336-0.32-1.312-1.024-2.16-1.568-0.16 0.432-1.344 1.376-2.064 2.128-58.64 67.472-157.648 181.344-157.648 285.552 0 88.224 71.792 160.016 160 160.016 88.256 0 160.032-71.792 160.032-160.032 0-104.192-99.008-218.064-158.16-286.096z" />
<glyph unicode="&#xe649;" d="M511.44 223.013c-0.16 0.672-0.064 1.392-0.32 2.048-0.096 0.272-0.336 0.416-0.432 0.672-0.16 0.384-0.128 0.816-0.336 1.184-46.4 88.816-147.408 152.448-253.968 152.448-106.576 0-207.568-63.536-254-152.336-0.208-0.368-0.176-0.8-0.336-1.184-0.112-0.256-0.336-0.4-0.432-0.672-0.256-0.656-0.16-1.376-0.32-2.048-0.288-1.2-0.56-2.352-0.56-3.584s0.288-2.368 0.56-3.584c0.16-0.672 0.064-1.392 0.32-2.048 0.096-0.272 0.336-0.416 0.432-0.672 0.16-0.384 0.128-0.816 0.336-1.184 46.416-88.816 147.424-152.448 254-152.448 106.56 0 207.568 63.536 253.968 152.336 0.224 0.368 0.192 0.8 0.336 1.184 0.096 0.256 0.336 0.4 0.432 0.672 0.256 0.656 0.16 1.376 0.32 2.048 0.272 1.216 0.56 2.368 0.56 3.584s-0.288 2.384-0.56 3.584zM256.368 91.621c-89.84 0-177.792 51.056-221.616 127.92 44.064 76.96 131.888 127.84 221.616 127.84 89.808 0 177.776-51.072 221.6-127.92-44.064-76.976-131.872-127.84-221.6-127.84zM256.368 283.445c4.416 0 7.968-3.568 7.968-8 0-4.4-3.568-7.984-7.968-7.984v-0.016c-26.464 0-47.984-21.52-47.984-47.952 0-4.416-3.584-8-7.984-8-4.416 0-8 3.584-8 8 0 35.28 28.592 63.872 63.872 63.936 0.032 0 0.064 0.016 0.096 0.016zM256 331.429c-61.872 0-112-50.144-112-112s50.144-112 112-112c61.84 0 112 50.16 112 112 0 61.872-50.16 112-112 112zM256 123.429c-52.944 0-96 43.056-96 96s43.056 96 96 96c52.944 0 96-43.056 96-96 0-52.944-43.056-96-96-96z" />
<glyph unicode="&#xe64a;" d="M256 363.429c4.416 0 8-3.584 8-8s-3.6-8-8-8c-85.232 0-160-44.864-160-96 0-4.416-3.584-8-8-8-4.416 0-8 3.584-8 8 0 60.704 80.592 112 176 112zM256 443.429c-141.392 0-256-85.968-256-192 0-66.032 44.464-124.256 112.128-158.816 0-0.432-0.128-0.72-0.128-1.184 0-28.688-21.424-59.568-30.848-75.776 0.016 0 0.032 0 0.032 0-0.752-1.76-1.184-3.696-1.184-5.728 0-8 6.48-14.496 14.496-14.496 1.504 0 4.144 0.4 4.080 0.224 50 8.192 97.104 54.128 108.048 67.44 15.984-2.352 32.464-3.664 49.376-3.664 141.36 0 256 85.968 256 192 0 106.032-114.624 192-256 192zM256 91.429c-14.672 0-29.728 1.12-44.736 3.312-1.552 0.256-3.104 0.336-4.64 0.336-9.504 0-18.608-4.224-24.736-11.68-6.848-8.336-26.336-26.944-49.36-40.624 6.24 14.32 11.12 30.368 11.456 46.912 0.096 1.024 0.144 2.064 0.144 2.944 0 12.032-6.736 23.024-17.44 28.496-59.296 30.272-94.688 78.992-94.688 130.304 0 88.224 100.48 160 224 160 123.488 0 224-71.776 224-160 0-88.224-100.496-160-224-160z" />
<glyph unicode="&#xe64b;" d="M448 379.429h-384c-35.344 0-64-28.672-64-64v-208c0-35.344 28.656-64 64-64h384c35.344 0 64 28.656 64 64v208c0 35.328-28.656 64-64 64zM32 295.429l111.984-84-111.984-84v168zM480 107.429c0-17.664-14.368-32-32-32h-384c-17.648 0-32 14.336-32 32l125.312 94 69.888-52.432c8.528-6.368 18.656-9.6 28.8-9.6 10.128 0 20.256 3.216 28.784 9.6l69.904 52.432 125.312-94zM480 127.429l-112 84 112 84v-168zM275.184 161.797c-5.584-4.192-12.208-6.4-19.184-6.4s-13.616 2.224-19.2 6.4l-204.8 153.632c0 17.648 14.352 32 32 32h384c17.632 0 32-14.352 32-32l-204.816-153.632z" />
<glyph unicode="&#xe64c;" d="M504.688 472.869c-2.656 1.712-5.68 2.56-8.688 2.56-3.088 0-6.192-0.88-8.88-2.688l-480-320c-4.944-3.28-7.664-9.056-7.024-14.976 0.608-5.904 4.448-11.008 9.968-13.184l125.184-50.096 58.864-103.008c2.816-4.944 8.048-8 13.712-8.064 0.064 0 0.112 0 0.176 0 5.616 0 10.832 2.976 13.712 7.776l33.232 55.408 155.12-62.032c1.904-0.768 3.904-1.136 5.936-1.136 2.72 0 5.408 0.688 7.84 2.064 4.224 2.368 7.12 6.528 7.936 11.312l80 480c1.040 6.288-1.744 12.592-7.088 16.064zM50.176 142.997l370.8 247.216-269.6-288.592c-1.424 0.848-2.688 1.968-4.256 2.592l-96.944 38.784zM163.024 90.373c-0.032 0.064-0.080 0.096-0.112 0.16l303.088 324.4-258.384-402.592-44.592 78.032zM403.472 1.685l-136.656 54.656c-3.248 1.28-6.624 1.712-9.968 1.904l210.432 326.208-63.808-382.768z" />
<glyph unicode="&#xe64d;" d="M256 475.429c-107.904 0-224-32.528-224-104v-304c0-71.44 116.096-104 224-104 107.888 0 224 32.56 224 104v304c0 71.472-116.128 104-224 104zM448 67.429c0-39.744-85.968-72-192-72-106.048 0-192 32.256-192 72v59.776c33.056-34.064 112.8-51.776 192-51.776s158.944 17.712 192 51.776v-59.776zM448 163.429h-0.064c0-0.16 0.064-0.336 0.064-0.496 0-39.504-85.968-71.504-192-71.504-106.032 0-192 32-192 71.504 0 0.16 0.064 0.336 0.064 0.496h-0.064v59.776c33.056-34.064 112.8-51.776 192-51.776s158.944 17.712 192 51.776v-59.776zM448 259.429h-0.064c0-0.16 0.064-0.336 0.064-0.496 0-39.504-85.968-71.504-192-71.504-106.032 0-192 32-192 71.504 0 0.16 0.064 0.336 0.064 0.496h-0.064v54.976c41.936-31.952 118.8-46.976 192-46.976s150.064 15.024 192 46.976v-54.976zM256 299.429c-106.048 0-192 32.256-192 72 0 39.776 85.952 72 192 72 106.032 0 192-32.224 192-72 0-39.744-85.968-72-192-72zM384 59.429c0 8.837 7.163 16 16 16s16-7.163 16-16c0-8.837-7.163-16-16-16-8.837 0-16 7.163-16 16zM384 155.429c0 8.837 7.163 16 16 16s16-7.163 16-16c0-8.837-7.163-16-16-16-8.837 0-16 7.163-16 16zM384 251.429c0 8.837 7.163 16 16 16s16-7.163 16-16c0-8.837-7.163-16-16-16-8.837 0-16 7.163-16 16z" />
<glyph unicode="&#xe64e;" d="M500 372.421l-80 64c-5.68 4.544-12.752 7.008-20 7.008h-288c-7.264 0-14.32-2.464-20-7.008l-80-64c-10.464-8.384-14.592-22.4-10.352-35.12l32-96c3.152-9.456 10.544-16.912 19.984-20.144 3.36-1.152 6.88-1.728 10.368-1.728 5.568 0 11.088 1.456 16 4.288v-196.288c0-17.664 14.336-32 32-32h288c17.664 0 32 14.336 32 32v196.288c4.912-2.832 10.432-4.288 16-4.288 3.504 0 7.008 0.576 10.368 1.728 9.44 3.232 16.816 10.688 19.968 20.144l32 96c4.256 12.72 0.128 26.736-10.336 35.12zM316.064 411.429c-8.848-18.576-32.288-32-60.064-32s-51.232 13.424-60.064 32h120.128zM448 251.429l-48 32v-256h-288v256l-48-32-32 96 80 64h66.832c8.912-27.552 39.936-48 77.168-48 37.216 0 68.256 20.448 77.152 48h66.848l80-64-32-96z" />
<glyph unicode="&#xe64f;" d="M330.912 415.717c-7.568 7.552-17.6 11.712-28.288 11.712s-20.72-4.16-28.32-11.728l-22.56-22.592c-7.568-7.552-11.744-17.6-11.744-28.304 0-7.536 2.064-14.752 5.936-21.008l-217.232-87.024c-14.528-6.384-24.944-19.488-27.872-35.024-2.96-15.632 2-31.664 13.344-42.992l203.52-201.28c8.768-8.768 20.416-13.744 32.72-14.032 0.288-0.016 0.96-0.016 1.248-0.016 3.232 0 6.512 0.336 9.76 0.992 15.904 3.296 28.928 14.288 34.832 29.248l85.472 214.016c6.432-4.24 14-6.512 21.872-6.512 10.72 0 20.752 4.176 28.288 11.728l22.512 22.528c7.632 7.584 11.808 17.648 11.808 28.368s-4.192 20.8-11.712 28.288l-123.584 123.632zM266.544 5.557c-1.984-5.008-6.352-8.704-11.632-9.792-1.216-0.256-2.448-0.352-3.664-0.336-4.064 0.096-7.984 1.728-10.912 4.672l-203.648 201.408c-3.744 3.728-5.392 9.072-4.4 14.288 0.976 5.184 4.464 9.568 9.312 11.68l99.472 39.84c67.024-22.288 134.064-0.816 201.12-72.352l-75.648-189.408zM431.872 258.149l-22.624-22.608c-3.12-3.136-8.192-3.136-11.312 0l-28.288 28.272-22.912-57.424 1.904 4.848c-48.16 48.080-97.104 54.144-141.264 59.568-14.192 1.744-27.952 3.568-41.472 6.48l135.856 54.416-27.44 27.44c-3.12 3.12-3.12 8.192 0 11.312l22.624 22.64c3.12 3.12 8.192 3.12 11.312 0l123.6-123.632c3.168-3.12 3.168-8.192 0.016-11.312zM264 139.429c22.048 0 40 17.936 40 40s-17.936 40-40 40c-22.064 0-40-17.936-40-40s17.952-40 40-40zM264 203.429c13.248 0 24-10.752 24-24s-10.752-24-24-24c-13.264 0-24 10.752-24 24s10.736 24 24 24zM472 475.429c-22.064 0-40-17.936-40-40s17.936-40 40-40 40 17.936 40 40-17.936 40-40 40zM472 411.429c-13.248 0-24 10.752-24 24s10.752 24 24 24 24-10.752 24-24-10.752-24-24-24zM128 203.429c0-17.648 14.352-32 32-32s32 14.352 32 32-14.352 32-32 32-32-14.352-32-32zM160 219.429c8.832 0 16-7.152 16-16s-7.168-16-16-16-16 7.152-16 16 7.168 16 16 16zM192 107.429c0 8.837 7.163 16 16 16s16-7.163 16-16c0-8.837-7.163-16-16-16-8.837 0-16 7.163-16 16zM448 347.429c0 8.837 7.163 16 16 16s16-7.163 16-16c0-8.837-7.163-16-16-16-8.837 0-16 7.163-16 16z" />
<glyph unicode="&#xe650;" d="M469.344 427.429h-69.344v32c0 8.848-7.152 16-16 16s-16-7.152-16-16v-32h-96v32c0 8.848-7.168 16-16 16s-16-7.152-16-16v-32h-96v32c0 8.848-7.168 16-16 16s-16-7.152-16-16v-32h-69.328c-23.568 0-42.672-19.088-42.672-42.656v-378.672c0-23.568 19.104-42.672 42.672-42.672h426.672c23.568 0 42.656 19.104 42.656 42.672v378.672c0 23.568-19.088 42.656-42.656 42.656zM480 6.101c0-5.888-4.784-10.672-10.656-10.672h-426.672c-5.888 0-10.672 4.784-10.672 10.672v378.672c0 5.872 4.784 10.656 10.672 10.656h69.328v-32c0-8.848 7.168-16 16-16s16 7.152 16 16v32h96v-32c0-8.848 7.168-16 16-16s16 7.152 16 16v32h96v-32c0-8.848 7.152-16 16-16s16 7.152 16 16v32h69.344c5.872 0 10.656-4.784 10.656-10.656v-378.672zM112 283.429h64v-48h-64zM112 203.429h64v-48h-64zM112 123.429h64v-48h-64zM224 123.429h64v-48h-64zM224 203.429h64v-48h-64zM224 283.429h64v-48h-64zM336 123.429h64v-48h-64zM336 203.429h64v-48h-64zM336 283.429h64v-48h-64z" />
<glyph unicode="&#xe651;" d="M256-36.571c-141.382 0-256 114.618-256 256s114.618 256 256 256 256-114.618 256-256-114.618-256-256-256zM256 428.884c-115.689 0-209.455-93.766-209.455-209.455s93.766-209.455 209.455-209.455 209.455 93.766 209.455 209.455-93.766 209.455-209.455 209.455zM360.937 95.804l-6.028-3.631-17.455-10.915-10.287-7.727c-7.633-3.724-15.616-6.679-23.878-9.216v10.38l-2.909 23.994c0 0-1.443 13.824-3.631 17.455s-7.261 8.727-12.358 10.915-8.727 2.188-11.636 5.818-5.097 10.193-8.727 16.012-8.028 11.637-8.028 14.546 0 32.721 0 32.721l3.631 27.648 8.006 5.818 9.449 10.915 6.562 2.165 22.551-4.375h16.012l6.54-13.824 15.267-12.358 9.449-15.267 12.358-4.375h13.824l9.449-11.636 5.818-12.358 2.188-8.727v-14.545l-1.489-8.588c-9.264-15.547-20.947-29.208-34.678-40.845zM304.733 346.708l-16.012-8.727-5.818-16.733-9.448-8.728h-31.279l-14.545-5.818-0.722-11.637-5.818-9.448-1.443-10.194 2.909-8.727 3.631-8.727c0 0 8.727-10.193 0-17.455 0 0-10.915 0-13.079 3.631s-18.2 13.824-21.109 16.733-12.358 5.818-12.358 5.818l-11.636 4.375-10.915 0.722 0.721 15.267-0.721 13.102-4.375 9.449-12.358 9.449-0.722 10.193 1.489 5.655c29.464 29.301 70.052 47.43 114.875 47.43 25.297 0 48.943-6.26 70.307-16.547l-0.489-3.817-21.085-15.266z" />
<glyph unicode="&#xe652;" d="M248 475.429c-136.976 0-248-111.024-248-248s111.024-248 248-248 248 111.024 248 248-111.024 248-248 248zM463.6 235.429h-95.936c-0.88 35.44-7.184 69.296-18.368 100.288 21.6 9.008 41.568 20.992 59.776 35.152 32.368-36.336 52.608-83.52 54.528-135.44zM239.152 11.877c-26.592 22.144-48.896 50.896-65.216 84.288 20.944 6.544 43.136 10.128 66.064 10.864v-95.184c-0.288 0-0.56 0.016-0.848 0.032zM256.816 442.981c30.176-25.12 54.8-58.768 71.456-98.016-22.816-7.792-47.056-12.32-72.288-13.12v111.184c0.304-0.016 0.56-0.032 0.832-0.048zM283.472 440.261c44.16-7.344 83.776-27.968 114.624-57.824-16.752-12.848-35.056-23.728-54.848-31.968-14.56 34.512-34.992 65.024-59.776 89.792zM240 443.029v-111.184c-25.232 0.816-49.488 5.328-72.288 13.12 16.656 39.248 41.28 72.896 71.456 98.016 0.288 0.016 0.544 0.032 0.832 0.048zM152.736 350.453c-19.76 8.24-38.080 19.12-54.832 31.968 30.832 29.856 70.464 50.48 114.624 57.824-24.8-24.752-45.216-55.264-59.792-89.792zM161.68 330.213c24.672-8.56 50.96-13.552 78.32-14.384v-80.4h-95.664c0.864 33.504 6.8 65.52 17.344 94.784zM240 219.429v-96.4c-25.232-0.768-49.632-4.896-72.624-12.304-13.856 32.992-22.032 69.744-23.040 108.704h95.664zM212.528 14.597c-39.568 6.576-75.504 23.808-104.72 48.832 15.76 10.928 32.8 20.176 51.008 27.2 13.952-28.928 32.208-54.608 53.712-76.032zM256 11.829v95.184c22.912-0.736 45.12-4.32 66.064-10.864-16.336-33.392-38.624-62.144-65.216-84.288-0.272 0-0.56-0.016-0.848-0.032zM337.184 90.629c18.192-7.024 35.216-16.288 51.008-27.2-29.216-25.008-65.152-42.256-104.72-48.832 21.504 21.424 39.744 47.104 53.712 76.032zM328.624 110.725c-23.008 7.408-47.408 11.536-72.624 12.304v96.4h95.664c-1.008-38.96-9.2-75.712-23.040-108.704zM256 235.429v80.4c27.344 0.832 53.632 5.808 78.32 14.368 10.528-29.264 16.464-61.28 17.344-94.784h-95.664zM86.944 370.869c18.208-14.16 38.176-26.144 59.76-35.152-11.184-30.992-17.488-64.848-18.368-100.288h-95.936c1.92 51.92 22.16 99.104 54.544 135.44zM32.4 219.429h95.936c0.992-40.88 9.536-79.488 24.048-114.192-20.272-7.904-39.168-18.432-56.608-30.896-37.568 37.392-61.28 88.512-63.376 145.088zM400.224 74.357c-17.44 12.448-36.336 22.992-56.624 30.896 14.528 34.704 23.056 73.312 24.064 114.192h95.936c-2.096-56.592-25.824-107.712-63.376-145.088z" />
<glyph unicode="&#xe653;" d="M351.216 457.029c-131.232 52.544-280.24-11.232-332.8-142.48-52.576-131.264 11.232-280.288 142.48-332.832 131.248-52.56 280.256 11.232 332.816 142.48 52.576 131.264-11.248 280.256-142.496 332.832zM172.8 11.413c-114.656 45.92-170.592 176.544-124.688 291.216 45.92 114.656 176.56 170.608 291.232 124.672 114.656-45.904 170.592-176.544 124.688-291.2-45.936-114.672-176.56-170.592-291.232-124.688zM267.984 249.077c-16.4 6.576-35.040-1.408-41.616-17.808s1.408-35.024 17.792-41.6c16.4-6.576 35.056 1.408 41.616 17.792 6.56 16.4-1.408 35.024-17.792 41.616zM250.112 204.501c-8.192 3.296-12.176 12.608-8.912 20.816 3.296 8.192 12.624 12.176 20.816 8.912 8.176-3.28 12.16-12.608 8.896-20.816-3.28-8.192-12.608-12.176-20.8-8.912zM291.744 308.469c-49.216 19.712-105.088-4.224-124.8-53.424-19.712-49.216 4.224-105.088 53.424-124.8 49.216-19.712 105.088 4.208 124.8 53.424s-4.192 105.104-53.424 124.8zM232.288 159.957c-32.768 13.104-48.736 50.448-35.632 83.2 13.12 32.752 50.432 48.736 83.184 35.632 32.784-13.12 48.752-50.464 35.664-83.216-13.136-32.752-50.464-48.752-83.216-35.616zM374.912 171.781h-0.032c-13.072-32.624-38.128-56.896-68.096-69.856-0.112-0.048-0.176-0.176-0.336-0.24-4.064-1.728-8.752 0.144-10.496 4.224-1.744 4.048 0.16 8.752 4.192 10.48 26.336 11.28 48.4 32.608 59.904 61.344v-0.016c1.648 4.112 6.304 6.112 10.4 4.448 4.096-1.632 6.096-6.288 4.464-10.384zM429.84 158.405c4.096-1.648 6.096-6.304 4.464-10.4-19.6-48.928-57.216-85.36-102.16-104.768-0.192-0.080-0.336-0.256-0.528-0.352-4.064-1.728-8.752 0.128-10.496 4.208-1.744 4.064 0.16 8.768 4.192 10.496 41.408 17.728 76.064 51.248 94.128 96.368 1.648 4.096 6.304 6.096 10.4 4.448zM400.128 170.293c4.096-1.648 6.096-6.304 4.464-10.4-16.336-40.784-47.68-71.12-85.12-87.296-0.176-0.096-0.272-0.24-0.432-0.32-4.064-1.728-8.752 0.144-10.496 4.208-1.744 4.064 0.16 8.768 4.224 10.512h-0.032c33.904 14.512 62.24 41.92 76.992 78.848 1.648 4.112 6.304 6.096 10.4 4.448zM216.208 332.837c1.744-4.080-0.144-8.768-4.208-10.528-26.336-11.264-48.4-32.608-59.888-61.312h-0.016c-1.632-4.096-6.288-6.096-10.4-4.448-4.096 1.648-6.096 6.288-4.448 10.4h0.016c13.056 32.608 38.128 56.896 68.096 69.856 0.112 0.048 0.192 0.176 0.336 0.224 4.064 1.744 8.768-0.112 10.512-4.192zM191.008 391.669c1.744-4.064-0.144-8.752-4.192-10.512-41.408-17.728-76.048-51.248-94.128-96.352-1.648-4.112-6.304-6.096-10.4-4.448-4.112 1.632-6.112 6.288-4.448 10.416 19.6 48.928 57.2 85.344 102.16 104.768 0.16 0.080 0.304 0.256 0.496 0.336 4.064 1.728 8.768-0.144 10.512-4.208zM199.392 351.765v-0.048c-33.872-14.496-62.224-41.92-76.992-78.848-1.648-4.112-6.304-6.080-10.4-4.448-4.080 1.664-6.096 6.304-4.432 10.416 16.32 40.768 47.664 71.136 85.12 87.328 0.16 0.064 0.256 0.224 0.416 0.288 4.064 1.744 8.768-0.144 10.512-4.192 1.744-4.080-0.16-8.768-4.208-10.496z" />
<glyph unicode="&#xe654;" d="M208.077 122.098c-17.664-30.618-5.786-55.808 18.714-69.939s52.275-11.878 69.939 18.739c17.664 30.592 129.203 303.769 119.501 309.376-9.677 5.606-190.489-227.559-208.154-258.176zM256 316.658c11.213 0 22.144-0.973 32.793-2.765 11.213 14.029 23.783 29.491 35.993 44.211-21.811 6.323-44.825 9.753-68.787 9.753-143.539 0-256-121.037-256-275.558 0-9.523 0.435-19.021 1.254-28.288 1.254-14.080 13.824-24.448 27.776-23.219 14.080 1.28 24.474 13.696 23.219 27.776-0.691 7.757-1.050 15.744-1.050 23.731 0 125.798 89.984 224.358 204.8 224.358zM440.807 284.683c-7.142-19.2-14.695-38.759-21.351-55.68 26.035-37.632 41.344-84.813 41.344-136.704 0-8.115-0.358-16.281-1.075-24.192-1.28-14.080 9.088-26.522 23.168-27.827 0.793-0.077 1.562-0.103 2.355-0.103 13.082 0 24.243 10.010 25.447 23.271 0.87 9.472 1.306 19.175 1.306 28.851 0 75.546-26.931 143.078-71.193 192.384z" />
<glyph unicode="&#xe655;" d="M17.664 185.33l34.893-8.653 26.266 41.267-49.92 12.365c-12.493 3.123-25.113-4.454-28.211-16.896-3.098-12.39 4.505-24.986 16.973-28.083zM473.113 178.674l-114.253-102.861-134.349 103.962c-2.56 1.997-5.504 3.405-8.653 4.199l-17.894 4.403-26.266-41.242 28.135-6.938 145.869-112.845c4.224-3.303 9.241-4.889 14.285-4.889 5.606 0 11.213 1.997 15.616 5.99l128.691 115.84c9.549 8.601 10.265 23.245 1.664 32.743-8.576 9.498-23.296 10.24-32.845 1.639zM222.31 291.595l125.107-80.102c10.547-6.733 24.576-3.942 31.719 6.323l128.717 185.395c7.296 10.547 4.659 24.96-5.913 32.256s-25.063 4.633-32.384-5.888l-115.917-166.963-125.875 80.589c-5.197 3.328-11.52 4.454-17.587 3.123s-11.315-4.992-14.618-10.214l-191.923-301.286c-6.912-10.803-3.687-25.088 7.168-31.949 3.866-2.457 8.192-3.61 12.467-3.61 7.706 0 15.232 3.789 19.661 10.752l179.379 281.575z" />
<glyph unicode="&#xe656;" d="M491.52 219.429c0 130.073-105.447 235.52-235.52 235.52s-235.52-105.447-235.52-235.52c0-130.099 105.447-235.546 235.52-235.546s235.52 105.472 235.52 235.546zM71.68 219.429c0 101.786 82.534 184.32 184.32 184.32s184.32-82.534 184.32-184.32c0-101.811-82.534-184.346-184.32-184.346s-184.32 82.534-184.32 184.346zM354.56 173.349v92.16h-104.704v57.6l-97.536-103.68 97.536-103.68v57.6h104.704z" />
<glyph unicode="&#xe657;" d="M256 454.949c-130.073 0-235.52-105.447-235.52-235.52s105.447-235.52 235.52-235.52 235.52 105.447 235.52 235.52-105.447 235.52-235.52 235.52zM256 35.109c-101.811 0-184.32 82.534-184.32 184.32s82.509 184.32 184.32 184.32 184.32-82.534 184.32-184.32-82.509-184.32-184.32-184.32zM302.080 317.989h-92.16v-104.704h-57.6l103.68-97.536 103.68 97.536h-57.6v104.704z" />
<glyph unicode="&#xe658;" d="M256.026-16.091c130.074 0 235.494 105.447 235.494 235.52s-105.421 235.52-235.495 235.52c-130.099 0-235.546-105.447-235.546-235.52s105.447-235.52 235.546-235.52zM256.026 403.749c101.811 0 184.295-82.534 184.295-184.32s-82.509-184.32-184.294-184.32c-101.837 0-184.345 82.509-184.345 184.32s82.509 184.32 184.345 184.32zM209.92 120.869h92.186v104.704h57.6l-103.68 97.536-103.706-97.536h57.6v-104.704z" />
<glyph unicode="&#xe659;" d="M20.48 219.429c0-130.073 105.472-235.52 235.52-235.52 130.073 0 235.52 105.447 235.52 235.52 0 130.074-105.447 235.52-235.52 235.52-130.073 0-235.52-105.447-235.52-235.52zM440.32 219.429c0-101.786-82.534-184.32-184.32-184.32s-184.32 82.509-184.32 184.32c0 101.811 82.509 184.32 184.32 184.32s184.32-82.509 184.32-184.32zM157.44 265.509v-92.16h104.704v-57.6l97.536 103.68-97.536 103.68v-57.6h-104.704z" />
<glyph unicode="&#xe65a;" d="M368.615 29.528c6.861-6.938 6.861-18.125 0-25.063s-17.945-6.938-24.807 0l-200.448 202.419c-6.861 6.938-6.861 18.15 0 25.063l200.448 202.445c6.861 6.938 17.945 6.938 24.807 0s6.861-18.125 0-25.063l-182.784-189.901 182.784-189.901z" />
<glyph unicode="&#xe65b;" d="M66.099 332.043c-6.938 6.861-18.151 6.861-25.063 0-6.912-6.835-6.912-17.945 0-24.806l202.445-200.448c6.938-6.861 18.125-6.861 25.063 0l202.445 200.448c6.912 6.861 6.938 17.946 0 24.807s-18.176 6.861-25.063 0.025l-189.927-182.809-189.901 182.784z" />
<glyph unicode="&#xe65c;" d="M445.901 106.814c6.938-6.861 18.151-6.861 25.063 0 6.938 6.861 6.938 17.945 0 24.807l-202.445 200.448c-6.912 6.861-18.125 6.861-25.037 0l-202.445-200.448c-6.912-6.861-6.938-17.945 0-24.807s18.125-6.861 25.063 0l189.901 182.81 189.901-182.81z" />
<glyph unicode="&#xe65d;" d="M143.352 29.528c-6.861-6.938-6.861-18.125 0-25.063s17.946-6.938 24.806 0l200.448 202.419c6.861 6.938 6.861 18.15 0 25.063l-200.448 202.445c-6.861 6.938-17.946 6.938-24.806 0s-6.861-18.125 0-25.063l182.784-189.901-182.784-189.901z" />
<glyph unicode="&#xe65e;" d="M317.414 131.928c6.861-6.938 6.861-18.151 0-25.063-6.861-6.938-17.945-6.938-24.807 0l-98.048 100.019c-6.861 6.938-6.861 18.15 0 25.063l98.048 100.045c6.861 6.938 17.945 6.938 24.807 0s6.861-18.125 0-25.063l-80.384-87.501 80.384-87.501z" />
<glyph unicode="&#xe65f;" d="M343.501 280.843c6.938 6.861 18.151 6.861 25.063 0 6.938-6.861 6.938-17.945 0-24.806l-100.019-98.048c-6.938-6.861-18.15-6.861-25.063 0l-100.045 98.048c-6.912 6.861-6.912 17.945 0 24.806 6.938 6.861 18.125 6.861 25.063 0l87.501-80.384 87.501 80.384z" />
<glyph unicode="&#xe660;" d="M168.474 158.014c-6.938-6.861-18.125-6.861-25.063 0-6.912 6.861-6.938 17.945 0 24.832l100.045 97.997c6.938 6.861 18.151 6.861 25.063 0l100.045-98.022c6.938-6.887 6.938-17.971 0-24.832s-18.125-6.861-25.063 0l-87.526 80.409-87.501-80.384z" />
<glyph unicode="&#xe661;" d="M194.585 131.928c-6.861-6.938-6.861-18.151 0-25.063 6.835-6.938 17.946-6.938 24.806 0l98.048 100.019c6.861 6.938 6.861 18.15 0 25.063l-98.048 100.045c-6.861 6.938-17.946 6.938-24.806 0s-6.861-18.125-0.025-25.037l80.409-87.526-80.384-87.501z" />
<glyph unicode="&#xe662;" d="M320 475.349c-106.032 0-192-85.968-192-192 0-32.416 8.112-62.928 22.32-89.728l-133.504-133.472 0.112-0.096c-10.432-10.256-16.928-24.464-16.928-40.256 0-31.184 25.28-56.464 56.464-56.464 15.76 0 29.984 6.496 40.24 16.944l-0.032 0.032 133.456 133.44c26.816-14.256 57.376-22.4 89.872-22.4 106.032 0 192 85.968 192 192 0 106.032-85.968 192-192 192zM76.72 0.277c-5.152-5.344-12.288-8.688-20.256-8.688-15.6 0-28.24 12.624-28.24 28.224 0 7.968 3.36 15.088 8.688 20.256l-0.144 0.128 129.056 129.056c11.28-15.216 24.72-28.656 39.904-39.968l-129.008-129.008zM320 123.333c-88.352 0-160 71.664-160 160 0 88.352 71.648 160 160 160 88.336 0 160-71.648 160-160 0-88.336-71.664-160-160-160zM320 395.349c4.4 0 8-3.584 8-8s-3.6-8-8-8c-53.024 0-96-42.992-96-96 0-4.416-3.584-8-8-8-4.416 0-8 3.584-8 8 0 61.856 50.128 112 112 112z" />
<glyph unicode="&#xe663;" d="M128 142.629h-25.6c-14.131 0-25.6-11.443-25.6-25.6s11.469-25.6 25.6-25.6h25.6c14.131 0 25.6 11.443 25.6 25.6s-11.469 25.6-25.6 25.6zM128 245.029h-25.6c-14.131 0-25.6-11.469-25.6-25.6s11.469-25.6 25.6-25.6h25.6c14.131 0 25.6 11.469 25.6 25.6s-11.469 25.6-25.6 25.6zM128 347.429h-25.6c-14.131 0-25.6-11.469-25.6-25.6s11.469-25.6 25.6-25.6h25.6c14.131 0 25.6 11.469 25.6 25.6s-11.469 25.6-25.6 25.6zM230.4 296.229h179.2c14.157 0 25.6 11.469 25.6 25.6s-11.443 25.6-25.6 25.6h-179.2c-14.131 0-25.6-11.469-25.6-25.6s11.469-25.6 25.6-25.6zM409.6 245.029h-179.2c-14.131 0-25.6-11.469-25.6-25.6s11.469-25.6 25.6-25.6h179.2c14.157 0 25.6 11.469 25.6 25.6s-11.443 25.6-25.6 25.6zM409.6 142.629h-179.2c-14.131 0-25.6-11.443-25.6-25.6s11.469-25.6 25.6-25.6h179.2c14.157 0 25.6 11.443 25.6 25.6s-11.443 25.6-25.6 25.6z" />
<glyph unicode="&#xe664;" d="M179.2 245.029h-153.6c-14.131 0-25.6-11.469-25.6-25.6s11.469-25.6 25.6-25.6h153.6c14.131 0 25.6 11.469 25.6 25.6s-11.469 25.6-25.6 25.6zM179.2 142.629h-153.6c-14.131 0-25.6-11.443-25.6-25.6s11.469-25.6 25.6-25.6h153.6c14.131 0 25.6 11.443 25.6 25.6s-11.469 25.6-25.6 25.6zM496.64 245.029h-87.040v87.040c0 14.131-11.443 15.36-25.6 15.36s-25.6-1.229-25.6-15.36v-87.040h-84.48c-14.157 0-15.36-11.469-15.36-25.6s1.229-25.6 15.385-25.6h84.454v-87.040c0-14.131 11.443-15.36 25.6-15.36s25.6 1.229 25.6 15.36v87.040h87.040c14.131 0 15.36 11.469 15.36 25.6s-1.229 25.6-15.36 25.6zM179.2 347.429h-153.6c-14.131 0-25.6-11.469-25.6-25.6s11.469-25.6 25.6-25.6h153.6c14.131 0 25.6 11.469 25.6 25.6s-11.469 25.6-25.6 25.6z" />
<glyph unicode="&#xe665;" d="M409.6 245.029h-307.2c-14.131 0-25.6-11.469-25.6-25.6s11.469-25.6 25.6-25.6h307.2c14.157 0 25.6 11.469 25.6 25.6s-11.443 25.6-25.6 25.6zM102.4 296.229h307.2c14.157 0 25.6 11.469 25.6 25.6s-11.443 25.6-25.6 25.6h-307.2c-14.131 0-25.6-11.469-25.6-25.6s11.469-25.6 25.6-25.6zM409.6 142.629h-307.2c-14.131 0-25.6-11.443-25.6-25.6s11.469-25.6 25.6-25.6h307.2c14.157 0 25.6 11.443 25.6 25.6s-11.443 25.6-25.6 25.6z" />
<glyph unicode="&#xe666;" d="M256 475.429c-141.385 0-256-114.615-256-256s114.615-256 256-256 256 114.615 256 256-114.615 256-256 256zM256 11.429c-114.875 0-208 93.125-208 208s93.125 208 208 208 208-93.125 208-208-93.125-208-208-208zM192 331.429l192-112-192-112z" />
<glyph unicode="&#xe667;" d="M256 475.429c-141.385 0-256-114.615-256-256s114.615-256 256-256 256 114.615 256 256-114.615 256-256 256zM256 11.429c-114.875 0-208 93.125-208 208s93.125 208 208 208 208-93.125 208-208-93.125-208-208-208zM160 315.429h64v-192h-64zM288 315.429h64v-192h-64z" />
<glyph unicode="&#xe668;" d="M256 475.429c-141.385 0-256-114.615-256-256s114.615-256 256-256 256 114.615 256 256-114.615 256-256 256zM256 11.429c-114.875 0-208 93.125-208 208s93.125 208 208 208 208-93.125 208-208-93.125-208-208-208zM160 315.429h192v-192h-192z" />
<glyph unicode="&#xe669;" d="M256-36.571c141.385 0 256 114.615 256 256s-114.615 256-256 256-256-114.615-256-256 114.615-256 256-256zM256 427.429c114.875 0 208-93.125 208-208s-93.125-208-208-208-208 93.125-208 208 93.125 208 208 208zM352 139.429l-112 80 112 80zM224 139.429l-112 80 112 80z" />
<glyph unicode="&#xe66a;" d="M256 475.429c-141.385 0-256-114.615-256-256s114.615-256 256-256 256 114.615 256 256-114.615 256-256 256zM256 11.429c-114.875 0-208 93.125-208 208s93.125 208 208 208 208-93.125 208-208-93.125-208-208-208zM160 299.429l112-80-112-80zM288 299.429l112-80-112-80z" />
<glyph unicode="&#xe66b;" d="M192 219.429c0 35.346 28.654 64 64 64s64-28.654 64-64c0-35.346-28.654-64-64-64-35.346 0-64 28.654-64 64zM332.174 360.166c49.926-27.079 83.826-79.949 83.826-140.737s-33.9-113.658-83.826-140.737c22.033 35.063 35.826 85.135 35.826 140.737 0 55.602-13.793 105.674-35.826 140.737zM144 219.429c0-55.602 13.792-105.674 35.826-140.737-49.926 27.080-83.826 79.949-83.826 140.737 0 60.788 33.9 113.657 83.826 140.737-22.034-35.063-35.826-85.135-35.826-140.737zM48 219.429c0-85.95 27.202-163.092 70.326-215.861-71.151 45.474-118.326 125.157-118.326 215.861 0 90.704 47.175 170.387 118.326 215.861-43.124-52.769-70.326-129.911-70.326-215.861zM393.676 435.289c71.149-45.473 118.324-125.156 118.324-215.86s-47.175-170.387-118.324-215.86c43.122 52.768 70.324 129.91 70.324 215.86 0 85.95-27.202 163.092-70.324 215.86z" />
<glyph unicode="&#xe66c;" d="M245.333 176.762c17.6 0 32 19.2 32 42.666v170.666c0 23.466-14.4 42.666-32 42.666s-32-19.2-32-42.666v-170.666c0-23.466 14.4-42.666 32-42.666zM320 375.418v-46.806c50.666-26.858 85.334-79.957 85.334-141.184 0-88.235-71.766-160-160-160s-160 71.765-160 160c0 61.226 34.666 114.325 85.334 141.184v46.805c-74.838-29.781-128-102.656-128-187.989 0-111.744 90.923-202.667 202.667-202.667s202.667 90.923 202.667 202.667c0 85.334-53.163 158.208-128 187.989z" />
<glyph unicode="&#xe66d;" d="M256 475.429c-141.376 0-256-114.624-256-256s114.624-256 256-256 256 114.624 256 256-114.624 256-256 256zM256 6.095c-117.632 0-213.333 95.702-213.333 213.334s95.701 213.333 213.333 213.333 213.333-95.701 213.333-213.333-95.702-213.333-213.333-213.333zM350.87 366.522c-10.538 5.248-23.36 0.981-28.63-9.536l-72.085-144.192-43.094 43.072c-8.341 8.341-21.824 8.341-30.166 0s-8.341-21.824 0-30.166l64-64c4.054-4.053 9.472-6.272 15.104-6.272 1.13 0 2.283 0.086 3.413 0.277 6.762 1.11 12.587 5.397 15.659 11.52l85.334 170.666c5.291 10.538 1.002 23.339-9.536 28.63zM234.709 70.138h42.666v-21.376h-42.666zM234.709 411.429h42.666v-21.376h-42.666zM64 240.805h42.666v-21.376h-42.666zM405.291 240.805h42.666v-21.376h-42.666z" />
<glyph unicode="&#xe66e;" d="M443.413 407.311c-128.875 18.325-257.514 18.368-386.688-0.043-33.386-4.992-56.725-36.587-56.725-70.464v-234.667c0-33.877 19.37-65.493 52.95-70.528 64.448-9.173 126.208-13.803 191.317-13.803s136.661 4.651 201.258 13.824c33.43 5.014 66.475 36.63 66.475 70.507v234.624c0 33.877-34.966 65.493-68.587 70.55zM42.666 336.762c0 12.906 3.797 26.411 16.299 28.288 56.362 8 110.635 12.267 167.018 13.056l-83.606-148.394h-99.712v107.050zM469.334 102.138c0-12.906-19.37-26.389-31.914-28.267-124.906-17.77-249.792-17.728-374.378-0.022-12.715 1.899-20.373 15.36-20.373 28.288v84.906h125.035l37.781 58.837 18.112-153.173 109.696 94.336h136.043v-84.906zM469.334 229.711h-151.21l-60.971-60.010-23.274 208.554c3.499 0.022 6.891 0.192 10.389 0.192 63.104 0 132.65-4.522 194.944-13.354 12.714-1.92 30.123-15.403 30.123-28.288v-107.094zM341.376 326.138h21.248v-21.376h-21.248zM384 326.138h21.376v-21.376h-21.376z" />
<glyph unicode="&#xe66f;" d="M275.413 462.543l-187.712-335.040 0.96-0.49 9.493-150.699 137.536 68.31 0.875-0.49 187.712 335.019-148.864 83.392zM129.173 29.562l-1.302 75.499 68.246-38.25-66.944-37.248zM220.202 102.181l-74.411 41.707 114.709 204.736 74.454-41.685-114.752-204.757zM270.912 367.247l20.885 37.226 74.411-41.706-20.842-37.206-74.454 41.685z" />
<glyph unicode="&#xe670;" d="M389.094 245.029h-266.214c-14.157 0-15.36-11.469-15.36-25.6s1.203-25.6 15.36-25.6h266.214c14.157 0 15.385 11.469 15.385 25.6s-1.229 25.6-15.385 25.6z" />
<glyph unicode="&#xe671;" d="M389.094 245.029h-107.52v107.52c0 14.131-11.443 15.36-25.6 15.36-14.131 0-25.6-1.203-25.6-15.36v-107.52h-107.495c-14.157 0-15.36-11.469-15.36-25.6s1.203-25.6 15.36-25.6h107.495v-107.52c0-14.131 11.469-15.36 25.6-15.36 14.157 0 25.6 1.229 25.6 15.36v107.52h107.52c14.157 0 15.385 11.469 15.385 25.6s-1.229 25.6-15.385 25.6z" />
<glyph unicode="&#xe672;" d="M480 475.429h-448c-17.664 0-32-14.336-32-32v-320c0-17.664 14.336-32 32-32h128l-64-128h16l115.2 128h57.6l115.2-128h16l-64 128h128c17.664 0 32 14.336 32 32v320c0 17.664-14.336 32-32 32zM480 139.429c0-8.848-7.152-16-16-16h-416c-8.848 0-16 7.152-16 16v288c0 8.848 7.152 16 16 16h416c8.848 0 16-7.152 16-16v-288zM334.048 225.333l-72.336 186.064-79.008-148.64-44.096 45.36-74.608-46.496 21.056-12.128 47.808 29.792 57.68-59.392 66.8 125.648 73.856-190.064 62.992 132.608 25.664-54.624 28.144 4.72-53.664 114.112-60.288-126.96z" />
<glyph unicode="&#xe673;" d="M207.216 27.797c-0.4-0.4-0.816-0.816-1.2-1.216-40.128-38.384-103.952-39.136-142.656-1.536-41.056 38.64-41.872 94.608 0.704 137.664 0.336 0.336 0.608 0.688 0.944 1.024 0.4 0.368 0.784 0.768 1.168 1.136l266.48 259.008c24.416 23.232 63.136 23.648 86.624 0.816 14.128-20.128 23.024-60.624-0.784-84.176l-2.192-2.144-25.008-24.272-22.944-22.32-216.016-209.68-0.608 0.752-0.56-0.624-1.104-1.216c-0.096-0.064-0.208-0.128-0.288-0.224-8.928-8.064-22.704-8.128-31.136 0.064-8.352 8.128-8.336 20.032-0.016 28.896 0.272 0.256 0.432 0.56 0.704 0.816l201.584 195.888-24.272 23.536-177.36-172.368-21.536-23.504v-0.032c-0.064-0.064-0.128-0.096-0.208-0.192-0.192-0.192-0.352-0.368-0.544-0.576-22.128-22.096-25.184-54.208-3.36-75.44 21.84-21.2 57.632-19.52 80.352 2l0.032-0.032 0.448 0.464c0.048 0.032 0.096 0.064 0.128 0.096 0.048 0.032 0.080 0.096 0.112 0.128l240.832 230.016 24.976 24.304 2.224 2.128-0.032 0.032c37.696 37.168 19.792 106.784 1.568 131.968-37.088 36.032-98.144 35.152-136.368-2.016-0.56-0.528-1.024-1.12-1.568-1.68l-0.064 0.048-264.32-256.928c-0.208-0.224-0.432-0.368-0.656-0.592-0.368-0.336-0.704-0.784-1.072-1.152l-0.384-0.368 0.016-0.032c-52.432-52.512-53.296-135.088-1.472-185.504 52.336-50.864 138.528-49.584 192.48 2.848 0.224 0.224 0.384 0.432 0.608 0.656l0.064-0.064 280.464 272.56-24.256 23.568-280.528-272.528z" />
<glyph unicode="&#xe674;" d="M208 187.429c8.832 0 16 7.152 16 16s-7.168 16-16 16-16-7.152-16-16 7.168-16 16-16zM256 251.429c8.848 0 16 7.152 16 16s-7.152 16-16 16-16-7.152-16-16 7.152-16 16-16zM208 315.429c8.832 0 16 7.152 16 16s-7.168 16-16 16-16-7.152-16-16 7.168-16 16-16zM304 315.429c8.848 0 16 7.152 16 16s-7.152 16-16 16-16-7.152-16-16 7.152-16 16-16zM160 251.429c8.832 0 16 7.152 16 16s-7.168 16-16 16-16-7.152-16-16 7.168-16 16-16zM400 315.429c8.848 0 16 7.152 16 16s-7.152 16-16 16-16-7.152-16-16 7.152-16 16-16zM352 251.429c8.848 0 16 7.152 16 16s-7.152 16-16 16-16-7.152-16-16 7.152-16 16-16zM304 187.429c8.848 0 16 7.152 16 16s-7.152 16-16 16-16-7.152-16-16 7.152-16 16-16zM432 283.429c-8.848 0-16-7.152-16-16s7.152-16 16-16 16 7.152 16 16-7.152 16-16 16zM480 411.429h-448c-17.664 0-32-14.336-32-32v-320c0-17.664 14.336-32 32-32h448c17.664 0 32 14.336 32 32v320c0 17.664-14.336 32-32 32zM480 75.429c0-8.848-7.152-16-16-16h-416c-8.832 0-16 7.152-16 16v288c0 8.848 7.168 16 16 16h416c8.848 0 16-7.152 16-16v-288zM368 123.429h-224c-8.832 0-16-7.152-16-16s7.168-16 16-16h224c8.848 0 16 7.152 16 16s-7.152 16-16 16zM80 283.429c-8.832 0-16-7.152-16-16s7.168-16 16-16 16 7.152 16 16-7.168 16-16 16zM112 219.429c-8.832 0-16-7.152-16-16s7.168-16 16-16 16 7.152 16 16-7.168 16-16 16zM112 315.429c8.832 0 16 7.152 16 16s-7.168 16-16 16-16-7.152-16-16 7.168-16 16-16zM400 219.429c-8.848 0-16-7.152-16-16s7.152-16 16-16 16 7.152 16 16-7.152 16-16 16z" />
<glyph unicode="&#xe675;" d="M448 235.429h-0.784c-7.872-84.4-76.144-176-159.216-176v-64h96c8.848 0 16-7.152 16-16s-7.152-16-16-16h-256c-8.848 0-16 7.152-16 16s7.152 16 16 16h96v64c-83.072 0-151.328 91.6-159.216 176h-0.784v96c0 17.664 14.336 32 32 32s32-14.336 32-32v-80c0-70.688 57.312-128 128-128s128 57.312 128 128v80c0 17.664 14.336 32 32 32s32-14.336 32-32v-96zM256 187.429c-44.192 0-64 35.808-64 80v128c0 44.176 19.808 80 64 80s64-35.824 64-80v-128c0-44.192-19.808-80-64-80zM280 251.429c4.416 0 8 3.584 8 8 0 4.4-3.584 8-8 8s-8-3.6-8-8c0-4.416 3.584-8 8-8zM232 347.429c-4.416 0-8-3.6-8-8 0-4.416 3.584-8 8-8s8 3.584 8 8c0 4.4-3.584 8-8 8zM240 371.429c0 4.416-3.584 8-8 8s-8-3.584-8-8c0-4.416 3.584-8 8-8s8 3.584 8 8zM248 299.429c-4.416 0-8-3.6-8-8 0-4.416 3.584-8 8-8s8 3.584 8 8c0 4.4-3.584 8-8 8zM264 299.429c4.416 0 8 3.584 8 8 0 4.4-3.584 8-8 8s-8-3.6-8-8c0-4.416 3.584-8 8-8zM248 315.429c4.416 0 8 3.584 8 8 0 4.4-3.584 8-8 8s-8-3.6-8-8c0-4.416 3.584-8 8-8zM232 315.429c-4.416 0-8-3.6-8-8 0-4.416 3.584-8 8-8s8 3.584 8 8c0 4.4-3.584 8-8 8zM248 347.429c4.416 0 8 3.584 8 8s-3.584 8-8 8-8-3.584-8-8c0-4.416 3.584-8 8-8zM264 363.429c4.416 0 8 3.584 8 8s-3.584 8-8 8-8-3.584-8-8c0-4.416 3.584-8 8-8zM264 347.429c-4.416 0-8-3.6-8-8 0-4.416 3.584-8 8-8s8 3.584 8 8c0 4.4-3.584 8-8 8zM280 347.429c4.416 0 8 3.584 8 8s-3.584 8-8 8-8-3.584-8-8c0-4.416 3.584-8 8-8zM280 331.429c-4.416 0-8-3.6-8-8 0-4.416 3.584-8 8-8s8 3.584 8 8c0 4.4-3.584 8-8 8zM280 299.429c-4.416 0-8-3.6-8-8 0-4.416 3.584-8 8-8s8 3.584 8 8c0 4.4-3.584 8-8 8zM264 267.429c4.416 0 8 3.584 8 8 0 4.4-3.584 8-8 8s-8-3.6-8-8c0-4.416 3.584-8 8-8zM248 251.429c4.416 0 8 3.584 8 8 0 4.4-3.584 8-8 8s-8-3.6-8-8c0-4.416 3.584-8 8-8zM232 267.429c4.416 0 8 3.584 8 8 0 4.4-3.584 8-8 8s-8-3.6-8-8c0-4.416 3.584-8 8-8zM232 411.429c-4.416 0-8-3.584-8-8s3.584-8 8-8 8 3.584 8 8c0 4.416-3.584 8-8 8zM248 395.429c-4.416 0-8-3.584-8-8s3.584-8 8-8 8 3.584 8 8c0 4.416-3.584 8-8 8zM264 411.429c-4.416 0-8-3.584-8-8s3.584-8 8-8 8 3.584 8 8c0 4.416-3.584 8-8 8zM280 395.429c-4.416 0-8-3.584-8-8s3.584-8 8-8 8 3.584 8 8c0 4.416-3.584 8-8 8z" />
<glyph unicode="&#xe676;" d="M256-36.571c-46.546 0-256 209.454-256 372.363 0 77.103 62.534 139.637 139.637 139.637 48.64 0 91.368-24.902 116.363-62.603 24.995 37.702 67.724 62.603 116.363 62.603 77.103 0 139.637-62.534 139.637-139.637 0-162.909-209.454-372.363-256-372.363zM372.363 428.883v0 0c0 0-4.142 0-10.822-1.094-16.57-1.955-31.721-8.029-44.451-17.478-30.045-19.666-61.091-60.16-61.091-144.338 0 84.178-31.046 124.672-61.091 144.338-12.73 9.448-27.904 15.523-44.451 17.478-6.679 1.094-10.822 1.094-10.822 1.094v0c-51.41 0-93.091-41.682-93.091-93.091 0-116.363 162.909-314.182 209.454-314.182s209.454 197.818 209.454 314.182c0 51.409-41.682 93.091-93.091 93.091z" />
<glyph unicode="&#xe677;" d="M48 411.429v-400h400v400h-400zM176 27.429h-112v368h112v-368zM432 27.429h-240v368h240v-368z" />
<glyph unicode="&#xe678;" d="M48 411.429v-400h400v400h-400zM432 27.429h-368v272h368v-272zM432 315.429h-368v80h368v-80z" />
<glyph unicode="&#xe679;" d="M414.624 265.141c-6.992 73.008-67.776 130.288-142.624 130.288-57.904 0-107.472-34.368-130.336-83.68-6.88 2.176-14.048 3.68-21.648 3.68-39.76 0-72-32.256-72-72 0-7.904 1.584-15.376 3.936-22.464-30.928-18.032-51.936-51.12-51.936-89.504 0-57.44 46.56-104 104-104v-0.032l287.984 0.032c66.288 0 120 53.712 120 120 0 58.496-41.936 107.088-97.376 117.68zM392 59.461v-0.032h-287.984c-39.696 0.032-72 32.32-72 72.032 0 25.6 13.488 48.72 36.064 61.872 21.936 12.592 23.44 15.088 14.24 37.712-1.552 4.656-2.304 8.704-2.304 12.368 0 22.064 17.936 40 40 40 0 0 10.496 0.752 21.648-3.68 18.352-7.312 20.352-0.32 29.024 18.544 18.352 39.568 58.112 65.152 101.312 65.152 57.6 0 105.216-43.568 110.784-101.344 1.968-22.912 1.968-22.912 25.84-28.368 41.376-7.904 71.376-44.192 71.376-86.256 0-48.528-39.472-88-88-88z" />
<glyph unicode="&#xe67a;" d="M256 475.429c-141.385 0-256-114.615-256-256s114.615-256 256-256 256 114.615 256 256-114.615 256-256 256zM256 11.429c-114.875 0-208 93.125-208 208s93.125 208 208 208 208-93.125 208-208-93.125-208-208-208zM224 347.429h64v-64h-64zM320 91.429h-128v32h32v96h-32v32h96v-128h32z" />
<glyph unicode="&#xe67b;" d="M224 123.429h64v-64h-64zM352 347.429c17.673 0 32-14.327 32-32v-96l-96-64h-64v32l96 64v32h-160v64h192zM256 427.429c-55.559 0-107.792-21.636-147.078-60.922s-60.922-91.519-60.922-147.078c0-55.559 21.636-107.792 60.922-147.078 39.286-39.286 91.519-60.922 147.078-60.922 55.559 0 107.792 21.636 147.078 60.922 39.286 39.286 60.922 91.519 60.922 147.078 0 55.559-21.636 107.792-60.922 147.078-39.286 39.286-91.519 60.922-147.078 60.922zM256 475.429v0c141.385 0 256-114.615 256-256s-114.615-256-256-256c-141.385 0-256 114.615-256 256 0 141.385 114.615 256 256 256z" />
<glyph unicode="&#xe67c;" d="M256 427.429c-55.559 0-107.792-21.636-147.078-60.922s-60.922-91.519-60.922-147.078c0-55.559 21.636-107.792 60.922-147.078 39.286-39.286 91.519-60.922 147.078-60.922 55.559 0 107.792 21.636 147.078 60.922 39.286 39.286 60.922 91.519 60.922 147.078 0 55.559-21.636 107.792-60.922 147.078-39.286 39.286-91.519 60.922-147.078 60.922zM256 475.429v0c141.385 0 256-114.615 256-256s-114.615-256-256-256c-141.385 0-256 114.615-256 256 0 141.385 114.615 256 256 256zM224 123.429h64v-64h-64zM224 379.429h64v-192h-64z" />
<glyph unicode="&#xe67d;" d="M267.313 464.115c-6.222 6.222-18.513 11.314-27.313 11.314h-192c-8.8 0-16-7.2-16-16v-480c0-8.8 7.2-16 16-16h384c8.8 0 16 7.2 16 16v288c0 8.8-5.091 21.091-11.313 27.313l-169.374 169.373zM416-4.571h-352v448h175.579c1.458-0.24 4.204-1.377 5.405-2.239l168.778-168.777c0.861-1.201 1.998-3.947 2.238-5.405v-271.579zM432 475.429h-96c-8.8 0-10.909-5.091-4.687-11.313l105.373-105.373c6.223-6.223 11.314-4.114 11.314 4.686v96c0 8.8-7.2 16-16 16z" />
<glyph unicode="&#xe67e;" d="M96 186.286v-221.715c5.227-0.748 10.567-1.143 16-1.143h16v224.001h-16c-5.433 0-10.773-0.395-16-1.143zM384 187.429v-224h16c5.434 0 10.773 0.395 16 1.143v221.714c-5.227 0.748-10.566 1.143-16 1.143h-16zM512 219.429c0 141.385-114.615 256-256 256s-256-114.615-256-256c0-30.709 5.414-60.153 15.328-87.437-9.736-16.601-15.328-35.926-15.328-56.563 0-44.677 26.163-83.239 64-101.216v202.432c-10.063-4.781-19.29-11.030-27.429-18.452-2.996 14.61-4.571 29.739-4.571 45.236 0 123.712 100.288 224 224 224s224-100.288 224-224c0-15.497-1.574-30.626-4.571-45.236-8.14 7.422-17.365 13.671-27.429 18.452v-202.432c37.838 17.977 64 56.539 64 101.216 0 20.637-5.592 39.962-15.328 56.563 9.914 27.284 15.328 56.728 15.328 87.437z" />
<glyph unicode="&#xe67f;" d="M432 411.429h-32v-32h16v-256h-128v-128h-192v384h16v32h-32c-8.801 0-16-7.2-16-16v-416c0-8.8 7.199-16 16-16h252l116 116v316c0 8.8-7.2 16-16 16zM320-4.571v96h96l-96-96zM384 411.429h-64v32c0 17.6-14.4 32-32 32h-64c-17.602 0-32-14.4-32-32v-32h-64v-64h256v64zM288 411.429h-64v31.943c0.017 0.019 0.036 0.039 0.057 0.057h63.884c0.021-0.018 0.041-0.038 0.059-0.057v-31.943z" />
<glyph unicode="&#xe680;" d="M320 347.429v128h-224l-96-96v-288h192v-128h320v384h-192zM96 430.174v-50.745h-50.745l50.745 50.745zM32 123.429v224h96v96h160v-96l-96-96v-128h-160zM288 302.174v-50.745h-50.745l50.745 50.745zM480-4.571h-256v224h96v96h160v-320z" />
<glyph unicode="&#xe681;" d="M352 411.429h-64v32c0 17.6-14.4 32-32 32h-64c-17.602 0-32-14.4-32-32v-32h-64v-64h256v64zM256 411.429h-64v31.943c0.017 0.019 0.036 0.039 0.057 0.057h63.884c0.021-0.018 0.041-0.038 0.059-0.057v-31.943zM416 315.429v80c0 8.8-7.2 16-16 16h-32v-32h16v-64h-192v-224h-128v288h16v32h-32c-8.801 0-16-7.2-16-16v-320c0-8.8 7.199-16 16-16h144v-96h224l96 96v256h-96zM416 8.684v50.745h50.745l-50.745-50.745zM480 91.429h-96v-96h-160v288h256v-192z" />
<glyph unicode="&#xe682;" d="M512 219.429c-0.639 33.431-7.892 66.758-21.288 97.231-13.352 30.5-32.731 58.129-56.521 80.96-23.776 22.848-51.972 40.91-82.492 52.826-30.502 11.962-63.298 17.676-95.699 16.983-32.405-0.641-64.666-7.687-94.167-20.678-29.524-12.948-56.271-31.735-78.367-54.788-22.112-23.041-39.58-50.354-51.093-79.899-11.557-29.531-17.064-61.26-16.373-92.635 0.643-31.38 7.482-62.574 20.067-91.103 12.544-28.55 30.738-54.414 53.055-75.774 22.305-21.377 48.736-38.252 77.307-49.36 28.559-11.152 59.223-16.451 89.571-15.763 30.354 0.645 60.481 7.277 88.038 19.457 27.575 12.141 52.558 29.74 73.183 51.322 20.641 21.57 36.922 47.118 47.627 74.715 6.517 16.729 10.94 34.2 13.271 51.899 0.623-0.036 1.249-0.060 1.881-0.060 17.673 0 32 14.326 32 32 0 0.898-0.047 1.786-0.119 2.666h0.119zM461.153 134.455c-11.736-26.601-28.742-50.7-49.589-70.59-20.835-19.905-45.5-35.593-72.122-45.895-26.614-10.339-55.145-15.226-83.442-14.541-28.302 0.649-56.298 6.868-81.91 18.237-25.625 11.333-48.842 27.745-67.997 47.856-19.169 20.099-34.264 43.882-44.161 69.529-9.935 25.642-14.614 53.107-13.932 80.378 0.651 27.276 6.664 54.206 17.627 78.845 10.929 24.65 26.749 46.985 46.123 65.405 19.365 18.434 42.265 32.935 66.937 42.428 24.669 9.53 51.068 14.003 77.313 13.322 26.25-0.653 52.114-6.459 75.781-17.017 23.676-10.525 45.128-25.751 62.812-44.391 17.698-18.629 31.605-40.647 40.695-64.344 9.124-23.696 13.391-49.029 12.712-74.248h0.119c-0.072-0.88-0.119-1.768-0.119-2.666 0-16.506 12.496-30.087 28.543-31.812-3.112-17.411-8.265-34.409-15.39-50.496z" />
<glyph unicode="&#xe683;" d="M256 11.429c-114.88 0-208 93.12-208 208s93.12 208 208 208 208-93.12 208-208-93.12-208-208-208zM256 379.429c-88.352 0-160-71.632-160-160 0-88.352 71.648-160 160-160 88.368 0 160 71.648 160 160 0 88.368-71.632 160-160 160zM319.808 203.429h-48v-48c0-8.848-7.168-16-16-16-8.848 0-16 7.152-16 16v48h-48c-8.848 0-16 7.168-16 16s7.152 16 16 16h48v48c0 8.848 7.152 16 16 16 8.832 0 16-7.152 16-16v-48h48c8.832 0 16-7.168 16-16s-7.168-16-16-16z" />
</font>
</defs>
</svg>
